Santoya is owner of Rapidshare biggrin.gif biggrin.gif biggrin.gif
Цитата:
Я конечно знал, что Энди Ц любитель поиграть на 50 вертушках одновременно, за это его очень и уважаю, и сам не брезгую таким заниматься... Но 37 треков за 80 минут... Это анрил... Мне 32 максимум без каши удавалось...
Диск еще не слушал



Tinkertone


это студийный микс wink.gif склеивался он от недели до месяца. знаешь как делают такие миксы ? а ?


драм, жесть, дарксайд
не думаю что после 15 лет диджеинга и продюсирования кто то будет клеить миксы )))
dj5


он его без малейшего промаха не сыграл бы. где нибудь да были бы мелкие кони wink.gif
драм, жесть, дарксайд
да возможно промахи и были бы но он до таво крут что так бы обыграл их что ты с поднятами руками прыгал высоко высоко вверх и орал от радости=))))
бред... вы представляете что такое аблетон лайф?
Mark Caro, thank you...

--------------------
Уголок кормления разума:

-Если бы я был таким же крутым как Andy C,
я бы тоже бы стал таким же крутым.

DORCSAID
K-Erm


да, это типа детского конструктора на мониторе. я и забыл вовсе biggrin.gif
драм, жесть, дарксайд
а можно .cue отдельно выложить плз?
а ты мне тут говоришь, что государство - это лишь иллюзия, претендующая на твое жизненное пространство (с) 2H Company
thanks for the mix wink.gif
BULGARIA MASSIVE - BUT WHO THE ILLEST?


http://www.last.fm/user/bullsized/
Ссылка:
PERFORMER "Andy C"
TITLE "Nightlife 4"
FILE "01-andy_c-nightlife_4.mp3" MP3
 TRACK 01 AUDIO
   TITLE "Neo Remix"
   PERFORMER "Hive"
   INDEX 01 00:00:00
 TRACK 02 AUDIO
   TITLE "Same Old Blue"
   PERFORMER "Apex"
   INDEX 01 02:12:15
 TRACK 03 AUDIO
   TITLE "Forever (Original Sin VIP)"
   PERFORMER "G Dub"
   INDEX 01 04:23:17
 TRACK 04 AUDIO
   TITLE "The Code (SKC Remix)"
   PERFORMER "Absolute Zero & Subphonics"
   INDEX 01 06:34:00
 TRACK 05 AUDIO
   TITLE "Destiny Comes Ringin"
   PERFORMER "Break"
   INDEX 01 09:06:65
 TRACK 06 AUDIO
   TITLE "Machine"
   PERFORMER "Culture Shock"
   INDEX 01 10:55:00
 TRACK 07 AUDIO
   TITLE "Middle East Sun/Hustler"
   PERFORMER "L Plus/And Miles & Boneshaker"
   INDEX 01 12:23:15
 TRACK 08 AUDIO
   TITLE "Near Miss"
   PERFORMER "System"
   INDEX 01 15:17:50
 TRACK 09 AUDIO
   TITLE "Judgement"
   PERFORMER "Chane & Status"
   INDEX 01 17:27:30
 TRACK 10 AUDIO
   TITLE "Heaven and Hell (Xample VIP)"
   PERFORMER "Xample & Crystal Clear"
   INDEX 01 18:56:18
 TRACK 11 AUDIO
   TITLE "Headless Housefly"
   PERFORMER "Proxima & Nymfo"
   INDEX 01 21:29:05
 TRACK 12 AUDIO
   TITLE "Kronix"
   PERFORMER "Culture Shock"
   INDEX 01 24:02:05
 TRACK 13 AUDIO
   TITLE "Plague VIP"
   PERFORMER "Hive & Keaton"
   INDEX 01 25:51:00
 TRACK 14 AUDIO
   TITLE "Talk to Frank (Break Remix)"
   PERFORMER "Commix"
   INDEX 01 28:02:00
 TRACK 15 AUDIO
   TITLE "Killers Don't Die"
   PERFORMER "Hazard"
   INDEX 01 29:48:60
 TRACK 16 AUDIO
   TITLE "Splash Step"
   PERFORMER "Break"
   INDEX 01 32:01:87
 TRACK 17 AUDIO
   TITLE "Streetlife"
   PERFORMER "Chase & Status"
   INDEX 01 34:12:00
 TRACK 18 AUDIO
   TITLE "Lunar Bass (Commix VIP)"
   PERFORMER "Origin Unknown"
   INDEX 01 36:01:00
 TRACK 19 AUDIO
   TITLE "IMAX/Sokitume"
   PERFORMER "Culture Shock/Calibre"
   INDEX 01 38:11:20
 TRACK 20 AUDIO
   TITLE "Loud & Dirty"
   PERFORMER "Clipz feat. Shiv"
   INDEX 01 40:43:40
 TRACK 21 AUDIO
   TITLE "Hovercraft"
   PERFORMER "Zen"
   INDEX 01 43:15:40
 TRACK 22 AUDIO
   TITLE "Taken"
   PERFORMER "DC Breaks"
   INDEX 01 45:26:37
 TRACK 23 AUDIO
   TITLE "Stop It"
   PERFORMER "Spor"
   INDEX 01 47:36:61
 TRACK 24 AUDIO
   TITLE "Kane & Able"
   PERFORMER "Jem One"
   INDEX 01 50:08:90
 TRACK 25 AUDIO
   TITLE "Artisan VIP"
   PERFORMER "Lomax"
   INDEX 01 52:40:93
 TRACK 26 AUDIO
   TITLE "Follow the Light/Dawn Threader"
   PERFORMER "Sub Focus/Brookes Brothers & Futurebound"
   INDEX 01 54:08:90
 TRACK 27 AUDIO
   TITLE "Take Me Away"
   PERFORMER "Chase & Status"
   INDEX 01 57:45:55
 TRACK 28 AUDIO
   TITLE "Tokiado"
   PERFORMER "A Sides"
   INDEX 01 61:44:30
 TRACK 29 AUDIO
   TITLE "Be True"
   PERFORMER "Commix"
   INDEX 01 63:11:12
 TRACK 30 AUDIO
   TITLE "Impala"
   PERFORMER "Heist"
   INDEX 01 65:42:80
 TRACK 31 AUDIO
   TITLE "Join The Dots/Screamer VIP"
   PERFORMER "Sub Focus/Ram Trilogy"
   INDEX 01 67:53:20
 TRACK 32 AUDIO
   TITLE "Machete"
   PERFORMER "Hazard"
   INDEX 01 71:06:60
 TRACK 33 AUDIO
   TITLE "Timewarp"
   PERFORMER "Sub Focus"
Santoya, you're great!thx
GOLDIS
согласен, косячат все, а вот энди играет как то уж больно ровно всегда, даже лайвом...
Что то не вкурил с куе)

Дайте файл куе!!!
Rohman

копируешь то что написал Emerald в CUE-файл и вот тебе CUE!
Watching the stars fall from the sky
Блин дайте готовый а то я чото затупил)))

Этот топик читают:

383 ответов с 05.02.04 в 13:19
Назад в Drum'n'bass / BreakBeat