Digitalism – Encore (DJ Kicks Exclusive Remix Bonus EP)
картинка, оставленная пользователем
Label: K7 Records
Catalogue#: K7298EPD
Style: House
Rls Date: 18 July 2012
Quality: 320 kbps
Tracklisting
1. Encore (Solomun Remix) 7:15
2. Encore (Spiller & 2 Guys In Venice Remix) 5:44
links:
Цитата:
unibytes.com
gigabase.com
share4web.com
depositfiles.com
℗ mercenary (spb) 2014-2017
zam35
пожалуйста! освежите ссылки на старые киксы! так хочется скачать!!!
DJ KICKS DIGITALISM

01. AXEL LE BARON & KURBATOV – MENACE (ORIGINAL MIX)
02. SURRENDER ! – TRAVELLERS (SHAROOZ REMIX)
03. HEY TODAY! – 83
04. ALEX GOPHER – BRAIN LEECH
05. TWR72 – SUMMER
06. DIGITALISM – FALLING *
07. GAI BARONE – ALICUDI (DIGITALISM ELECTRO CLASH EDIT) *
08. DIGITALISM – SIMPLY DEAD *
09. WHOMADEWHO – THE SUN
10. KÖLSCH – LORELEY
11. GRAUZONE – RAUM (ATA’S EXTENDED MIX)
12. TOMAS BARFOD – CAME TO PARTY
13. DIGITALISM – A NEW DRUG *
14. DIGITALISM – SILENZ *
15. HIROKI ESASHIKA – KAZANE
16. VITALIC – SECOND LIVES
17. DIGITALISM – SO TOTALLY GOOD *
18. HOUSEMEISTER – SOMMER
19. THE RAPTURE – SAIL AWAY (DIGITALISM REMIX) *
20. THE SNEEKERS – TEDDY (ORIGINAL MIX)
21. AUTOTUNE – KEEP IT WRONG
22. DIGITALISM – THE PICTURES *
* DJ-Kicks exclusiv

http://rapidgator.net/file/21067955/Digita...JKicks.rar.html

http://turbobit.net/n7ds64nd385b.html

Can someone upload the unmixed version?

Это сообщение отредактировал akasdk - 26.06.12 в 21:21
This is the unmixed version!

Can someone upload the MIXED version??

Can someono upload "late night tales - Music for pleasure" by Tom Findlay form Groove Armada??
Ask LateNightTales in the relevant topic.
Это сообщение отредактировал Crazy Clip
картинка, оставленная пользователем

Digitalism - DJ-Kicks [2012]

01 Axel Le Baron & Kurbatov - Menace 04:02
02 Surrender - Travellers (Sharooz Remix) 04:14
03 Hey Today! - 83 05:35
04 Alex Gopher - Brain Leech 03:44
05 TWR72 - Summer 07:02
06 Digitalism - Falling 04:32
07 Gai Barone - Alicudi 04:46
(Digitalism Electro Clash Remix)
08 Digitalism - Simply Dead 04:29
09 WhoMadeWho - The Sun 04:18
10 Kolsch - Loreley 06:46
11 Grauzone - Raum (ATAs Extended Mix) 07:42
12 Tomas Barfod - Came To Party 04:31
13 Digitalism - A New Drug 03:11
14 Digitalism - Silenz 04:47
15 Hiroki Esashika - Kazane 05:51
16 Vitalic - Second Lives 04:26
17 Digitalism - So Totally Good 04:22
18 Housemeister - Sommer 04:55
19 The Rapture - Sail Away (Digitalism Remix) 04:58
20 The Sneekers - Teddy 04:55
21 Autotune - Keep It Wrong 05:29
22 Digitalism - The Pictures 06:40

23 Digitalism - Digitalism DJ-Kicks Mix 76:58
Ссылка:
https://rapidshare.com/files/2299604666/VA-DJ-Kicks_Digitalism-_K7298DTM_-WEB-2012-OMA.rar
http://ifolder.ru/31358046
Digitalism: DJ-Kicks / K7! Records / K7298DTM (DJ-Kicks Mix)

картинка, оставленная пользователем

01. Axel Le Baron & Kurbatov - Menace
02. Surrender - Travellers (Sharooz Remix)
03. Hey Today! - 83
04. Alex Gopher - Brain Leech
05. TWR72 - Summer
06. Digitalism - Falling
07. Gai Barone - Alicudi (Digitalism Electro Clash Remix)
08. Digitalism - Simply Dead
09. WhoMadeWho - The Sun
10. Kolsch - Loreley
11. Grauzone - Raum (ATA's Extended Mix)
12. Tomas Barfod - Came To Party
13. Digitalism - A New Drug
14. Digitalism - Silenz
15. Hiroki Esashika - Kazane
16. Vitalic - Second Lives
17. Digitalism - So Totally Good
18. Housemeister - Sommer
19. The Rapture - Sail Away (Digitalism Remix)
20. The Sneekers - Teddy
21. Autotune - Keep It Wrong
22. Digitalism - The Pictures

Download:

http://kompaktotraum.ifolder.ru/31369188
Kompakt Schallplatten
.cue есть внутри?
what is House music ?? unique form of music
Saniok88

Неа. Куи не делаю) Да и нафиг он,если есть анмиксед ж итак.
Kompakt Schallplatten
cue
Скрытый текст / Hidden text
PERFORMER "VA"
TITLE "Digitalism DJ Kicks"
FILE "01_digitalism_dj_kicks-drum.mp3" MP3
TRACK 01 AUDIO
TITLE "Menace (Original Mix)"
PERFORMER "Axel Le Baron & Kurbatov"
INDEX 01 00:00:00
TRACK 02 AUDIO
TITLE "Traverllers (Sharooz Remix)"
PERFORMER "Surrender!"
INDEX 01 03:35:32
TRACK 03 AUDIO
TITLE "83"
PERFORMER "Hey Today!"
INDEX 01 07:08:33
TRACK 04 AUDIO
TITLE "Brain Leech"
PERFORMER "Alex Gopher"
INDEX 01 10:17:66
TRACK 05 AUDIO
TITLE "Summer"
PERFORMER "TWR72"
INDEX 01 14:06:16
TRACK 06 AUDIO
TITLE "Falling"
PERFORMER "Digitalism"
INDEX 01 17:06:29
TRACK 07 AUDIO
TITLE "Alicudi (Digitalism Electro Clash Edit)"
PERFORMER "Gai Barone"
INDEX 01 21:25:08
TRACK 08 AUDIO
TITLE "Simply Dead"
PERFORMER "Digitalism"
INDEX 01 25:53:31
TRACK 09 AUDIO
TITLE "The Sun"
PERFORMER "WhoMadeWho"
INDEX 01 29:28:69
TRACK 10 AUDIO
TITLE "Loreley"
PERFORMER "Koelsch"
INDEX 01 33:49:39
TRACK 11 AUDIO
TITLE "Raum (Ata's Extended Mix)"
PERFORMER "Grauzone"
INDEX 01 37:46:10
TRACK 12 AUDIO
TITLE "Came To Party"
PERFORMER "Tomas Barford"
INDEX 01 44:44:19
TRACK 13 AUDIO
TITLE "A New Drug"
PERFORMER "Digitalism"
INDEX 01 46:19:60
TRACK 14 AUDIO
TITLE "Silenz"
PERFORMER "Digitalism"
INDEX 01 49:23:64
TRACK 15 AUDIO
TITLE "Kazane"
PERFORMER "Hiroki Esashika"
INDEX 01 53:07:16
TRACK 16 AUDIO
TITLE "Second Lives"
PERFORMER "Vitalic"
INDEX 01 55:17:16
TRACK 17 AUDIO
TITLE "So Totally Good"
PERFORMER "Digitalism"
INDEX 01 57:53:63
TRACK 18 AUDIO
TITLE "Sommer"
PERFORMER "Housemeister"
INDEX 01 61:18:45
TRACK 19 AUDIO
TITLE "Sail Away (Digitalism Remix)"
PERFORMER "The Rapture"
INDEX 01 64:01:33
TRACK 20 AUDIO
TITLE "Teddy (Original Mix)"
PERFORMER "THe Sneekers"
INDEX 01 68:23:32
TRACK 21 AUDIO
TITLE "Keep It Wrong"
PERFORMER "Autotune"
INDEX 01 70:53:19
TRACK 22 AUDIO
TITLE "The Pictures"
PERFORMER "Digitalism"
INDEX 01 73:26:62


Добавлено:
cd+cue
Скрытый текст / Hidden text
Ссылка:
https://rapidshare.com/files/38721915/VA_-_Digitalism_DJ_Kicks-_K7298CD-CD_-2012-DRUM.rar
http://ifolder.ru/31374548

Марлик
так в том то и дело, что анмиксд нафик не нужен...cue я использую сугубо во время прослушки сэта)
what is House music ?? unique form of music
Digitalism не очень)

Это сообщение отредактировал Death_1 - 29.06.12 в 2:02
Death
дигитализм весьма
картинка, оставленная пользователем
iris2
Скачивание невозможно
Следующее скачивание невозможно:
https://rapidshare.com/files/38721915/VA_-_..._-2012-DRUM.rar | 148.24 MB
Файл приведенной выше ссылки более не существует. Это может быть по нескольким причинам:
Загрузчик удалил файл.
Файл содержал нелегальную информацию и был удален с наших серверов нашей группой Anti-Abuse.
Неправильная ссылка.
Сервер занят и не может обработать запрос.
человек должен судить о себе не по социальному статусу, а по количеству "кала"
да, ссылки мертвы - выложите на народ или медиафайр
картинка, оставленная пользователем
Перезалейте, пожалуйста.

Этот топик читают:

918 ответов с 15.02.05 в 11:22
Назад в Electronic