картинка, оставленная пользователем

Real name: Josh Davis
homepage | last.fm | discogs | wiki | myspace


Solo albums and mixes:

1996 - Endtroducing..... (Deluxe Edition)

Disc 1 - Endtroducing

картинка, оставленная пользователем

FLAC (lossless) - Download
mp3 (320 kbps) - Download


Disc 2 - Excess Ephemera

картинка, оставленная пользователем

FLAC (lossless) - Download
mp3 (320 kbps) - Download


1997 - Camel Bobsled Race (Q-Bert live mix)

картинка, оставленная пользователем

FLAC (lossless) - Download
mp3 (320 kbps) - Download


1998 - Bombay the Hard Way - Guns, Cars & Sitars

картинка, оставленная пользователем

FLAC (lossless) - Download
mp3 (320 kbps) - Download


1998 - Preemptive Strike

картинка, оставленная пользователем

FLAC (lossless) - Download
mp3 (320 kbps) - Download


1999 - VA - Funk Spectrum

картинка, оставленная пользователем

FLAC (lossless) - Download
mp3 (320 kbps) - Download


2000 - Dark Days

картинка, оставленная пользователем

FLAC (lossless) - Download
mp3 (320 kbps) - Download


2000 - Schoolhouse Funk

картинка, оставленная пользователем

FLAC (lossless) - Download
mp3 (320 kbps) - Download


2002 - The Private Press

картинка, оставленная пользователем

FLAC (lossless) - Download
mp3 (320 kbps) - Download


2003 - Diminishing Returns

картинка, оставленная пользователем

FLAC (lossless) - Download
mp3 (320 kbps) - Download


2003 - The Private Repress

картинка, оставленная пользователем

FLAC (lossless) - Download
mp3 (320 kbps) - Download


2004 - Live! In Tune and on Time

картинка, оставленная пользователем

FLAC (lossless) - Download
mp3 (320 kbps) - Download


2005 - Funky Skunk

картинка, оставленная пользователем

FLAC (lossless) - Download
mp3 (320 kbps) - Download


2005 - One Night in Bangkok

картинка, оставленная пользователем

FLAC (lossless) - Download
mp3 (320 kbps) - Download


2005 - Schoolhouse Funk II - Raw Business

картинка, оставленная пользователем

FLAC (lossless) - Download
mp3 (320 kbps) - Download


2006 - The Outsider

картинка, оставленная пользователем

FLAC (lossless) - Download
mp3 (320 kbps) - Download


2008 - The 4-Track Era Box Bundle

Volume 1: Best of the KMEL Mixes (1991)
картинка, оставленная пользователем

FLAC (lossless) - Download
mp3 (320 kbps) - Download


Volume 2: Best of the Remixes and Megamixes (1990-1992)

картинка, оставленная пользователем

FLAC (lossless) - Download
mp3 (320 kbps) - Download


Volume 3: Best of the Original Productions (1990-1992)

картинка, оставленная пользователем

FLAC (lossless) - Download
mp3 (320 kbps) - Download


Bonus Disc: KMEL Mix #4

картинка, оставленная пользователем

FLAC (lossless) - Download
mp3 (320 kbps) - Download


DJ Shadow & Cut Chemist:

1999 - Brainfreeze

картинка, оставленная пользователем

FLAC (lossless) - Download
mp3 (320 kbps) - Download


2001 - Product Placement

картинка, оставленная пользователем

FLAC (lossless) - Download
mp3 (320 kbps) - Download


2008 - The Hard Sell (Encore)

картинка, оставленная пользователем

FLAC (lossless) - Download
mp3 (320 kbps) - Download


Password: funkysouls.com
картинка, оставленная пользователем | картинка, оставленная пользователемWTF108

zippy
Re-Upload, Please

Цитата: TranceYou
DJ Shadow - Live In Los Angeles (2010) (320 kbps)

картинка, оставленная пользователем

DOWNLOAD :

http://depositfiles.com/files/21tj8xykz

PASSWORD :

sex123

DJ Shadow ★ Cut Chemist - Product Placement

картинка, оставленная пользователем

Label: One 29 Recordings (MILK1969 01 6)
Format: CD, Mixed, Limited Edition
Country: US
Released: 2001
Genre: Hip Hop, Funk / Soul
Style: Electro, Soul, Funk, Psychedelic

Media: FLAC

discogs | track 01 | track 02
Кусок со вчерашнего выступления на Коачелле

I can't use what I can't abuse
Various Artists – Silicon Valley (Music from the HBO Original Series) (Pre-order iTunes Single) (2017)

картинка, оставленная пользователем

2. DJ Shadow - Systematic (feat. Nas)
Ссылка:
http://www103.zippyshare.com/v/KN57kzk6/file.html
картинка, оставленная пользователем
картинка, оставленная пользователем
картинка, оставленная пользователем
DJ Shadow - Glastonbury 2017 (720p *.mp4) bbc.co.uk/events/ec584f/play/a98d2m/p0557khy

[1] drop.me/a9rdQM
[2] thepiratebay.org/torrent/17999556/Glastonbury_2017_DJ_Shadow

media info

Video: MPEG4 Video (H264) 1280x720 25fps 2300kbps [V: h264 high L4.1, yuv420p, 1280x720, 2300 kb/s]
Audio: AAC 48000Hz stereo 93kbps [A: SoundHandler (aac, 48000 Hz, stereo, 93 kb/s)]


Video
ID : 1
Format : AVC
Format/Info : Advanced Video Codec
Format profile : High@L4.1
Format settings, CABAC : Yes
Format settings, ReFrames : 2 frames
Codec ID : avc1
Codec ID/Info : Advanced Video Coding
Duration : 1h 1mn
Bit rate mode : Variable
Bit rate : 2 300 Kbps
Maximum bit rate : 3 500 Kbps
Width : 1 280 pixels
Height : 720 pixels
Display aspect ratio : 16:9
Frame rate mode : Constant
Frame rate : 25.000 fps
Color space : YUV
Chroma subsampling : 4:2:0
Bit depth : 8 bits
Scan type : Progressive
Bits/(Pixel*Frame) : 0.100
Stream size : 1 011 MiB (96%)

Audio
ID : 2
Format : AAC
Format/Info : Advanced Audio Codec
Format profile : LC
Codec ID : 40
Duration : 1h 1mn
Bit rate mode : Constant
Bit rate : 93.5 Kbps
Channel(s) : 2 channels
Channel positions : Front: L R
Sampling rate : 48.0 KHz
Compression mode : Lossy
Stream size : 41.1 MiB (4%)
bandcamp liquid amber
Liquid Amber is a digital music label curated by DJ Shadow. Launched in 2014, Liquid Amber is designed as a resource for emerging artists as well as a soundboard for anything and everything beats-oriented and dope. Not trying to take over the world, just trying to make it better through music.
dastard13
Спасибо, первый же артист просто огонь!
Ещё не добрался, не заценил. Наткнулся случайно))
DJ Shadow - The Mountain Has Fallen EP

картинка, оставленная пользователем

Tracklist:
1. Systematic (feat. Nas)
2. Horror Show (feat. Danny Brown)
3. Good News
4. Corridors (feat. Steven Price)

MP3 320

Этот топик читают:

1997 ответов с 04.12.04 в 15:14
Назад в Electronic / Easy Listening