2004 - Peace Love Death Metal
Eagles_Of_Death_Metal-Peace_Love_Death_Metal-2004-EOS V2

картинка, оставленная пользователем

01. Only Want You
02. Speaking In Tongues
03. So Easy
04. Flames Go Higher
05. Bad Dream Mama
06. English Girl
07. Stacks O' Money
08. Midnight Creeper
09. Stuck In The Metal
10. Already Died
11. Kiss the Devil
12. Whorehoppin (Shit, Goddamn)
13. San Berdoo Bunburn
14. Wastin' My Time
15. Miss Alissa

http://lit777.rusfolder.net/22487362

+++

Eagles_of_Death_Metal-Peace_Love_Death_Metal-Advance-2004-0MNi V2

http://lit777.rusfolder.net/22487366

2006 - Death By Sexy
Eagles_Of_Death_Metal-Death_By_Sexy_(Tour_Edition)-2007-uF V2

картинка, оставленная пользователем

01. I Want You So Hard (Boy's Bad News)
02. I Got A Feelin (Just Nineteen)
03. Cherry Cola
04. I Like To Move In The Night
05. Solid Gold
06. Don't Speak (I Came To Make A BANG!)
07. Keep Your Head Up
08. The Ballad Of Queen Bee And Baby Duck
09. Poor Doggie
10. Chase The Devil
11. Eagles Goth
12. Shasta Beast
13. Bag O' Miracles
14. Nasty Notion (Bonus Track)
15. Beat On The Brat (Bonus Track)
16. Addicted To Love (Bonus Track)
17. High Voltage Rock 'N' Roll (Bonus Track)

http://lit777.rusfolder.net/files/35932421

by Blast40185

+++

Eagles Of Death Metal - Death By Sexy... (2006) 320 kbps

http://lit777.rusfolder.net/22487694

2008 - Heart On
Eagles_Of_Death_Metal-Heart_On-2008-MTD V2

картинка, оставленная пользователем

01. Anything 'cept The Truth
02. Wannabe In LA
03. (I Used To Couldn't Dance) Tight Pants
04. High Voltage
05. Secret Plans
06. Now I'm A Fool
07. Heart On
08. Cheap Thrills
09. How Can A Man With So Many Friends Feel So Alone
10. Solo Flights
11. Prissy Prancin'
12. I'm Your Torpedo

http://lit777.rusfolder.net/22487392


Это сообщение отредактировал Lit777 - 31.07.14 в 19:04
16.10.2009
Это сообщение отредактировал Blast40185
Eagles Of Death Metal - Heart On (2008) FLAC

картинка, оставленная пользователем

ARTIST: Eagles Of Death Metal
TITLE: Heart On
YEAR: 2008
LABEL: Downtown Recordings
SOURCE: CD
QUALITY: FLAC (Tracks + Cue)
RELEASE DATE: Oct-28-2008
GENRE: Rock
SIZE: 284 Mb (297 800 682 byte)

Tracklist:

01 Anything 'Cept The Truth
02 Wannabe In LA
03 (I Used To Couldn't Dance) Tight Pants
04 High Voltage
05 Secret Plans
06 Now I'm A Fool
07 Heart On
08 Cheap Thrills
09 How Can A Man With So Many Friends Feel So Alone
10 Solo Flights
11 Prissy Prancin'
12 I'm Your Torpedo

Release Notes:

In 2004, Eagles of Death Metal launched their wholesome good-graciousness with Peace, Love, and Death Metal, followed in 2006, by the diabolical Death By Sexy. In 2008, EODM unleash Heart On. Speculators are speculating that the Dream Boy Duo of dance and prance will bring home Olympic Album Gold once again. The EODM formula for fantastic is humm: let's see...that's one part Jesse Boots Electric Hughes, and one part Joshua Babyduck Homme. Stirred and served chillllled in a tall glass of class. It goes down smooth every time. Features the single 'Wannabe In L.A.'.

EAC
Exact Audio Copy V0.99 prebeta 4 from 23. January 2008

EAC extraction logfile from 22. October 2008, 9:12

Eagles Of Death Metal / Heart On

Used drive : MATSHITABD-CMB UJ-120 Adapter: 1 ID: 0

Read mode : Secure
Utilize accurate stream : Yes
Defeat audio cache : Yes
Make use of C2 pointers : No

Read offset correction : 102
Overread into Lead-In and Lead-Out : No
Fill up missing offset samples with silence : Yes
Delete leading and trailing silent blocks : No
Null samples used in CRC calculations : Yes
Used interface : Native Win32 interface for Win NT & 2000
Gap handling : Appended to previous track

Used output format : User Defined Encoder
Selected bitrate : 128 kBit/s
Quality : High
Add ID3 tag : No
Command line compressor : C:\Program Files\FLAC\flac.exe
Additional command line options : -V -8 -T "artist=%a" -T "title=%t" -T "album=%g" -T "date=%y" -T "tracknumber=%n" -T "genre=%m" %s


TOC of the extracted CD

Track | Start | Length | Start sector | End sector
---------------------------------------------------------
1 | 0:00.00 | 4:34.17 | 0 | 20566
2 | 4:34.17 | 2:15.64 | 20567 | 30755
3 | 6:50.06 | 3:35.49 | 30756 | 46929
4 | 10:25.55 | 2:43.18 | 46930 | 59172
5 | 13:08.73 | 2:22.61 | 59173 | 69883
6 | 15:31.59 | 3:41.61 | 69884 | 86519
7 | 19:13.45 | 2:43.12 | 86520 | 98756
8 | 21:56.57 | 3:42.21 | 98757 | 115427
9 | 25:39.03 | 3:02.31 | 115428 | 129108
10 | 28:41.34 | 3:25.69 | 129109 | 144552
11 | 32:07.28 | 3:40.33 | 144553 | 161085
12 | 35:47.61 | 5:12.51 | 161086 | 184536


Track 1

Filename C:\Users\Brian\Documents\Downloads\Heart On - Anything 'Cept The Truth.wav

Pre-gap length 0:00:02.00

Peak level 94.9 %
Track quality 100.0 %
Test CRC E32252E9
Copy CRC E32252E9
Copy OK

Track 2

Filename C:\Users\Brian\Documents\Downloads\Heart On - Wannabe In L.A..wav

Peak level 99.8 %
Track quality 100.0 %
Test CRC 833CDF8C
Copy CRC 833CDF8C
Copy OK

Track 3

Filename C:\Users\Brian\Documents\Downloads\Heart On - (I Used To Couldn't Dance) Tight Pants.wav

Peak level 98.8 %
Track quality 100.0 %
Test CRC BE0D7395
Copy CRC BE0D7395
Copy OK

Track 4

Filename C:\Users\Brian\Documents\Downloads\Heart On - High Voltage.wav

Peak level 98.8 %
Track quality 100.0 %
Test CRC BEE2409E
Copy CRC BEE2409E
Copy OK

Track 5

Filename C:\Users\Brian\Documents\Downloads\Heart On - Secret Plans.wav

Peak level 99.8 %
Track quality 100.0 %
Test CRC 373EB577
Copy CRC 373EB577
Copy OK

Track 6

Filename C:\Users\Brian\Documents\Downloads\Heart On - Now I'm A Fool.wav

Peak level 98.8 %
Track quality 99.9 %
Test CRC AC1DD8D3
Copy CRC AC1DD8D3
Copy OK

Track 7

Filename C:\Users\Brian\Documents\Downloads\Heart On - Heart On.wav

Pre-gap length 0:00:00.16

Peak level 99.8 %
Track quality 100.0 %
Test CRC CAC5B58B
Copy CRC CAC5B58B
Copy OK

Track 8

Filename C:\Users\Brian\Documents\Downloads\Heart On - Cheap Thrills.wav

Pre-gap length 0:00:00.42

Peak level 98.8 %
Track quality 100.0 %
Test CRC F37D268D
Copy CRC F37D268D
Copy OK

Track 9

Filename C:\Users\Brian\Documents\Downloads\Heart On - How Can A Man With So Many Friends Feel So All Alone.wav

Pre-gap length 0:00:00.41

Peak level 95.8 %
Track quality 100.0 %
Test CRC D3773EAE
Copy CRC D3773EAE
Copy OK

Track 10

Filename C:\Users\Brian\Documents\Downloads\Heart On - Solo Flights.wav

Pre-gap length 0:00:00.01

Peak level 92.2 %
Track quality 100.0 %
Test CRC B588C224
Copy CRC B588C224
Copy OK

Track 11

Filename C:\Users\Brian\Documents\Downloads\Heart On - Prissy Prancin'.wav

Pre-gap length 0:00:00.48

Peak level 98.8 %
Track quality 100.0 %
Test CRC 6A364F19
Copy CRC 6A364F19
Copy OK

Track 12

Filename C:\Users\Brian\Documents\Downloads\Heart On - I'm Your Torpedo.wav

Pre-gap length 0:00:00.49

Peak level 98.8 %
Track quality 100.0 %
Test CRC 0751C7A6
Copy CRC 0751C7A6
Copy OK

No errors occurred

End of status report

Download:

Ссылка:
http://ifolder.ru/8823250
http://ifolder.ru/8823517
http://ifolder.ru/8824022

Ссылка:
http://rapidshare.com/files/159071752/EoDM-HO-FLAC.part1.rar.html
http://rapidshare.com/files/159076775/EoDM-HO-FLAC.part2.rar.html
http://rapidshare.com/files/159081952/EoDM-HO-FLAC.part3.rar.html

Ссылка:
http://narod.ru/disk/3496909000/EoDM-HO-FLAC.rar.html


Eagles Of Death Metal - Heart On (2008) 320 kbit

Ссылка:
http://ifolder.ru/8822952

Ссылка:
http://rapidshare.com/files/159043704/EoDM-HO-320.rar.html

Ссылка:
http://narod.ru/disk/3497257000/EoDM-HO-320.rar.html
Ура спасибо!!! Офигенный альбом!!!
Цитата:
Омм побрился наголо?

давно ещё )) летом, перед фестом Leeds & Reading 2008 (wink.gif)
  
JDav!s
Цитата:
Цитата:
Омм побрился наголо?
давно ещё )) летом, перед фестом Leeds & Reading 2008 (wink.gif)
virgin mega store 11/20/08
картинка, оставленная пользователемкартинка, оставленная пользователем
картинка, оставленная пользователемкартинка, оставленная пользователем
теги cool.gif
а где инди рок?
ладно молчу ph34r.gif
Цитата:
virgin mega store 11/20/08

эээ.... 20 ноября 2008??? huh.gif
помойму вместо 11 надо 10 ставить =)))
в любом случае он просто оброс уж к октябрю ))

Цитата:
инди рок

пусть уж так хотя бы ))
Однозначно качаю первые альбомы, кайфовое звучание нового альбома меня очень порадовало, как порыв свежего бриза в океане музыкального застоя, круто!+1
прикольно, не старо, не свежо. но есть какая-то загадка. буду слушать и не только в метро. а клип вообще приколол.
а на каком альбоме песенка она еще в футбольной рекламе найка звучит?
Nezvanov, Dmitry333, The Finch - знают правильные грибы и шишки! respect
garagenick
2006
Heart On поторели отовсюду. кто нибудь сможет перезалить, пожалуйста?
желательно на народ или япапку.
Can anyone repost Heart On 320 kbs on RS ou megaupload?

the link doesn't work anymore it seems sad.gif
перезалейте HEART ON (2008) хоть куда-нибудь,плз)
все линки почищены 8(
running the circules,
raining the circules.
Heart On - 320 kbit/s

картинка, оставленная пользователем

Tracklist
01-Anything 'Cept The Truth
02-Wannabe In LA
03-(I Used To Couldn't Dance) Tight Pants
04-High Voltage
05-Secret Plans
06-Now I'm A Fool
07-Heart On
08-Cheap Thrills
09-How Can A Man With So Many Friends Feel So Alone
10-Solo Flights
11-Prissy Prancin'
12-I'm Your Torpedo

download: iFolder.ru | depositfiles.com | megaupload.com
password: jd
а ни у кого нету альбома Get a Heart On ?

Добавлено:
оу.. мега быстрая реакция ) спасибо

Этот топик читают:

449 ответов с 18.09.05 в 13:04
Назад в Rock