Ed Case

2-step / UK Garage / UK / Edwin Makromallis
картинка, оставленная пользователем картинка, оставленная пользователем



картинка, оставленная пользователем

Ed Case - Ed's Guest List [2002] (FLAC)
Release Info
Label: Columbia
Released: 22 Jul 2002
Genre: Electronic
Style: 2-step, UK Garage
Quality: Lossless (.flac) / 44.1 kHz
Time: 67:04 min
Size: 427 mb
Incl.: log, m3u, cover
Tracklist
01. September Sun (feat. Ming Xia)
02. Deal With The Matter (feat. Ms. Dynamite)
03. Only You (feat. Elisabeth Troy)
04. Indigo (feat. Shaun Escoffery)
05. Understand Love (feat. Alexis)
06. Bounce (feat. Pluto, Holly & Tayma)
07. Better Late Than Never (feat. Fahan Hassan)
08. When I Roll (feat. MC Harvey)
09. Be Yourself (feat. Robbie Craig)
10. Blazin' (feat. Kinane)
11. Who Ya Wanna Be? (feat. Specialist Moss)
12. Friends Like These (feat. Saffron)
13. No More (feat. Holly James)
14. Good Times (feat. Skin)
15. Stir Of Echoes (feat. Ming Xia)
16. Who? (feat. Sweetie Irie)
Log
Цитата:
Exact Audio Copy V0.99 prebeta 4 from 23. January 2008

EAC extraction logfile from 27. December 2008, 9:06

Ed Case / Ed's Guest List

Used drive  : Optiarc DVD RW AD-7170S   Adapter: 0  ID: 1

Read mode               : Secure
Utilize accurate stream : Yes
Defeat audio cache      : Yes
Make use of C2 pointers : No

Read offset correction                      : 48
Overread into Lead-In and Lead-Out          : No
Fill up missing offset samples with silence : Yes
Delete leading and trailing silent blocks   : No
Null samples used in CRC calculations       : Yes
Used interface                              : Native Win32 interface for Win NT & 2000
Gap handling                                : Appended to previous track

Used output format              : User Defined Encoder
Selected bitrate                : 768 kBit/s
Quality                         : High
Add ID3 tag                     : No
Command line compressor         : C:\Program Files (x86)\Exact Audio Copy\FLAC\FLAC.EXE
Additional command line options : -V -8 -T "artist=%a" -T "title=%t" -T "album=%g" -T "date=%y" -T "tracknumber=%n" -T "genre=%m" %s


TOC of the extracted CD

     Track |   Start  |  Length  | Start sector | End sector
    ---------------------------------------------------------
        1  |  4:30.00 |  4:36.73 |     20250    |    41022  
        2  |  9:06.73 |  4:10.47 |     41023    |    59819  
        3  | 13:17.45 |  4:11.08 |     59820    |    78652  
        4  | 17:28.53 |  3:35.17 |     78653    |    94794  
        5  | 21:03.70 |  3:18.68 |     94795    |   109712  
        6  | 24:22.63 |  4:47.65 |    109713    |   131302  
        7  | 29:10.53 |  4:03.15 |    131303    |   149542  
        8  | 33:13.68 |  4:46.52 |    149543    |   171044  
        9  | 38:00.45 |  3:33.38 |    171045    |   187057  
       10  | 41:34.08 |  4:32.65 |    187058    |   207522  
       11  | 46:06.73 |  3:58.17 |    207523    |   225389  
       12  | 50:05.15 |  2:44.40 |    225390    |   237729  
       13  | 52:49.55 |  3:35.08 |    237730    |   253862  
       14  | 56:24.63 |  4:40.20 |    253863    |   274882  
       15  | 61:05.08 |  5:26.72 |    274883    |   299404  
       16  | 66:32.05 |  5:01.40 |    299405    |   322019  


Track  1

     Filename D:\music\Ripped\Ed Case\Ed's Guest List\01 - September Sun (ft. Ming Xia).wav

     Pre-gap length  0:04:32.00

     Peak level 99.3 %
     Track quality 100.0 %
     Test CRC 489A5966
     Copy CRC 489A5966
     Track not present in AccurateRip database
     Copy OK

Track  2

     Filename D:\music\Ripped\Ed Case\Ed's Guest List\02 - Deal With The Matter (ft. Ms. Dynamite).wav

     Pre-gap length  0:00:00.88

     Peak level 99.3 %
     Track quality 100.0 %
     Test CRC F151F5E0
     Copy CRC F151F5E0
     Track not present in AccurateRip database
     Copy OK

Track  3

     Filename D:\music\Ripped\Ed Case\Ed's Guest List\03 - Only You (ft. Elisabeth Troy).wav

     Pre-gap length  0:00:00.58

     Peak level 99.3 %
     Track quality 100.0 %
     Test CRC 0A8F2DAB
     Copy CRC 0A8F2DAB
     Track not present in AccurateRip database
     Copy OK

Track  4

     Filename D:\music\Ripped\Ed Case\Ed's Guest List\04 - Indigo (ft. Shaun Escoffery).wav

     Pre-gap length  0:00:01.26

     Peak level 99.3 %
     Track quality 100.0 %
     Test CRC 109E3C0A
     Copy CRC 109E3C0A
     Track not present in AccurateRip database
     Copy OK

Track  5

     Filename D:\music\Ripped\Ed Case\Ed's Guest List\05 - Understand Love (ft. Alexis).wav

     Pre-gap length  0:00:00.37

     Peak level 99.3 %
     Track quality 99.9 %
     Test CRC 8802BC8D
     Copy CRC 8802BC8D
     Track not present in AccurateRip database
     Copy OK

Track  6

     Filename D:\music\Ripped\Ed Case\Ed's Guest List\06 - Bounce (ft. Pluto, Holly & Tayma).wav

     Pre-gap length  0:00:00.64

     Peak level 99.3 %
     Track quality 99.9 %
     Test CRC 410D4232
     Copy CRC 410D4232
     Track not present in AccurateRip database
     Copy OK

Track  7

     Filename D:\music\Ripped\Ed Case\Ed's Guest List\07 - Better Late Than Never (Fahan Hassan).wav

     Pre-gap length  0:00:01.06

     Peak level 99.3 %
     Track quality 100.0 %
     Test CRC 7F00B520
     Copy CRC 7F00B520
     Track not present in AccurateRip database
     Copy OK

Track  8

     Filename D:\music\Ripped\Ed Case\Ed's Guest List\08 - When I Roll (ft. Harvey).wav

     Pre-gap length  0:00:01.12

     Peak level 99.3 %
     Track quality 100.0 %
     Test CRC 6F256289
     Copy CRC 6F256289
     Track not present in AccurateRip database
     Copy OK

Track  9

     Filename D:\music\Ripped\Ed Case\Ed's Guest List\09 - Be Yourself (ft. Robbie Craig).wav

     Pre-gap length  0:00:01.08

     Peak level 99.3 %
     Track quality 99.9 %
     Test CRC 4C607411
     Copy CRC 4C607411
     Track not present in AccurateRip database
     Copy OK

Track 10

     Filename D:\music\Ripped\Ed Case\Ed's Guest List\10 - Blazin' (ft. Kinane).wav

     Pre-gap length  0:00:00.97

     Peak level 99.3 %
     Track quality 100.0 %
     Test CRC DD860B0A
     Copy CRC DD860B0A
     Track not present in AccurateRip database
     Copy OK

Track 11

     Filename D:\music\Ripped\Ed Case\Ed's Guest List\11 - Who Ya Wanna Be  (ft. Specialist Moss).wav

     Pre-gap length  0:00:00.85

     Peak level 99.3 %
     Track quality 100.0 %
     Test CRC 81AC78CA
     Copy CRC 81AC78CA
     Track not present in AccurateRip database
     Copy OK

Track 12

     Filename D:\music\Ripped\Ed Case\Ed's Guest List\12 - Friends Like These (ft. Saffron).wav

     Pre-gap length  0:00:00.93

     Peak level 100.0 %
     Track quality 100.0 %
     Test CRC E007EA2A
     Copy CRC E007EA2A
     Track not present in AccurateRip database
     Copy OK

Track 13

     Filename D:\music\Ripped\Ed Case\Ed's Guest List\13 - No More (ft. Holly).wav

     Peak level 99.3 %
     Track quality 100.0 %
     Test CRC 0545C065
     Copy CRC 0545C065
     Track not present in AccurateRip database
     Copy OK

Track 14

     Filename D:\music\Ripped\Ed Case\Ed's Guest List\14 - Good Times (ft. Skin).wav

     Pre-gap length  0:00:01.06

     Peak level 99.3 %
     Track quality 99.9 %
     Test CRC C1E5E3AE
     Copy CRC C1E5E3AE
     Track not present in AccurateRip database
     Copy OK

Track 15

     Filename D:\music\Ripped\Ed Case\Ed's Guest List\15 - Stir Of Echoes (ft. Ming Xia).wav

     Pre-gap length  0:00:00.96

     Peak level 99.3 %
     Track quality 100.0 %
     Test CRC ABE8130C
     Copy CRC ABE8130C
     Track not present in AccurateRip database
     Copy OK

Track 16

     Filename D:\music\Ripped\Ed Case\Ed's Guest List\16 - Who  (ft. Sweetie Irie).wav

     Pre-gap length  0:00:12.69

     Peak level 99.3 %
     Track quality 99.9 %
     Test CRC 50116033
     Copy CRC 50116033
     Track not present in AccurateRip database
     Copy OK


None of the tracks are present in the AccurateRip database

No errors occurred

End of status report
Download
Ссылка:
http://ifolder.ru/25043607
Ссылка:
http://letitbit.net/download/64742.6995999328ba413e75c819d47ac8/Ed_Case-Eds_Guest_List-2002-FLAC.rar.html
-------------------------------------------------------
Ed Case - Ed's Guest List [2002]
Ed_Case-Eds_Guest_List-2002-FST
Release Info
Label: Columbia
Released: 22 Jul 2002
Genre: Electronic
Style: 2-step, UK Garage
Quality: 320 kbps / 44.1 kHz
Time: 67:04 min
Size: 153.6 mb
Incl.: m3u, nfo, sfv, cover
Download
Ссылка:
http://ifolder.ru/25040674
Ссылка:
http://letitbit.net/download/95894.96b3db28dabae0dfc611bd230ba9/Ed_Case-Eds_Guest_List-2002-FST.rar.html
Ссылка:
http://depositfiles.com/files/0bhkqpisw
Ссылка:
http://rapidshare.com/files/3800008004/Ed_Case-Eds_Guest_List-2002-FST.rar
Я модерирую когда захочу.
barey

nice upload man. big yourself up
thanks a lot renegade much appreciated smile.gif
Ed Case - Who? (320- CD RIP)

http://www.mediafire.com/?o6l117jkb7o2y2d

Also got the Wideboys remix in there too

Этот топик читают:

4 ответов с 05.08.11 в 12:02
Назад в UK Garage