картинка, оставленная пользователем

Starecase - Firstfloor [2002] (FLAC)
Release Info
Label: Hope Recordings (HOPECD023)
Released: 08 May 2002
Genre: Electronic
Style: Breakbeat, Progressive House, Progressive Trance
Quality: Lossless (.flac)
Time: 51:44 min
Size: 344 mb
Incl.: log, m3u
Tracklist
01. Faith
02. Understand Me
03. (Sound Two) Second Time
04. Come In
05. Stuck In The Middle
06. See
07. Aishiteru
08. Bitter Little Pill
09. The Bitter End
Log
Цитата:
Exact Audio Copy V0.99 prebeta 4 from 23. January 2008

EAC extraction logfile from 11. September 2008, 23:31

Starecase / Firstfloor

Used drive  : HL-DT-STDVDRAM GSA-4120B   Adapter: 0  ID: 3

Read mode               : Secure
Utilize accurate stream : Yes
Defeat audio cache      : No
Make use of C2 pointers : Yes

Combined read/write offset correction       : 667
Overread into Lead-In and Lead-Out          : No
Fill up missing offset samples with silence : Yes
Delete leading and trailing silent blocks   : No
Null samples used in CRC calculations       : No
Used interface                              : Native Win32 interface for Win NT & 2000
Gap handling                                : Left out

Used output format              : User Defined Encoder
Selected bitrate                : 320 kBit/s
Quality                         : High
Add ID3 tag                     : Yes
Command line compressor         : D:\Exact Audio Copy\FLAC\flac.exe
Additional command line options : -8 -A tukey(0.25) -A gauss(0.1875) -b 4096 -V -T "artist=%a" -T "title=%t" -T "album=%g" -T "date=%y" -T "tracknumber=%n" -T "genre=%m" -T "COMMENT=ripped & encoded by Epic    d(¬_¬)b " %s --sector-align


TOC of the extracted CD

     Track |   Start  |  Length  | Start sector | End sector
    ---------------------------------------------------------
        1  |  0:00.00 |  4:28.34 |         0    |    20133  
        2  |  4:28.34 |  7:01.43 |     20134    |    51751  
        3  | 11:30.02 |  5:52.29 |     51752    |    78180  
        4  | 17:22.31 |  5:27.20 |     78181    |   102725  
        5  | 22:49.51 |  7:39.34 |    102726    |   137184  
        6  | 30:29.10 |  4:51.21 |    137185    |   159030  
        7  | 35:20.31 |  6:41.25 |    159031    |   189130  
        8  | 42:01.56 |  3:58.16 |    189131    |   206996  
        9  | 45:59.72 |  5:59.60 |    206997    |   233981  


Track  1

     Filename M:\_Encoded files\Starecase - Firstfloor  (2002)\01  Starecase - Faith.wav

     Pre-gap length  0:00:02.00

     Peak level 100.0 %
     Track quality 99.9 %
     Copy CRC E16A86BF
     Copy OK

Track  2

     Filename M:\_Encoded files\Starecase - Firstfloor  (2002)\02  Starecase - Understand Me.wav

     Pre-gap length  0:00:02.00

     Peak level 100.0 %
     Track quality 100.0 %
     Copy CRC 24814F1B
     Copy OK

Track  3

     Filename M:\_Encoded files\Starecase - Firstfloor  (2002)\03  Starecase - (Sound Two) Second Time.wav

     Pre-gap length  0:00:02.00

     Peak level 100.0 %
     Track quality 100.0 %
     Copy CRC 4D7FEC56
     Copy OK

Track  4

     Filename M:\_Encoded files\Starecase - Firstfloor  (2002)\04  Starecase - Come In.wav

     Pre-gap length  0:00:02.00

     Peak level 100.0 %
     Track quality 100.0 %
     Copy CRC 9909A627
     Copy OK

Track  5

     Filename M:\_Encoded files\Starecase - Firstfloor  (2002)\05  Starecase - Stuck In The Middle.wav

     Pre-gap length  0:00:02.00

     Peak level 100.0 %
     Track quality 100.0 %
     Copy CRC 357CEE0C
     Copy OK

Track  6

     Filename M:\_Encoded files\Starecase - Firstfloor  (2002)\06  Starecase - See (Album Mix).wav

     Pre-gap length  0:00:02.00

     Peak level 100.0 %
     Track quality 100.0 %
     Copy CRC EB59496F
     Copy OK

Track  7

     Filename M:\_Encoded files\Starecase - Firstfloor  (2002)\07  Starecase - Aishiteru.wav

     Pre-gap length  0:00:02.00

     Peak level 100.0 %
     Track quality 100.0 %
     Copy CRC 489F85D4
     Copy OK

Track  8

     Filename M:\_Encoded files\Starecase - Firstfloor  (2002)\08  Starecase - Bitter Little Pill.wav

     Pre-gap length  0:00:02.00

     Peak level 100.0 %
     Track quality 100.0 %
     Copy CRC 5BD00AD7
     Copy OK

Track  9

     Filename M:\_Encoded files\Starecase - Firstfloor  (2002)\09  Starecase - The Bittter End.wav

     Pre-gap length  0:00:02.00

     Peak level 100.0 %
     Track quality 100.0 %
     Copy CRC DD07252F
     Copy OK

No errors occurred

End of status report
Download
Ссылка:
http://ifolder.ru/24769792
Ссылка:
http://letitbit.net/download/20069.29e7310c89350928bb4244d7add8/Starecase-Firstfloor-%28HOPECD023%29-2002-FLAC.rar.html
-------------------------------------------------------
Starecase - Firstfloor [2002]
Starecase-Firstfloor-(HOPECD023)-2002-FST
Release Info
Label: Hope Recordings (HOPECD023)
Released: 08 May 2002
Genre: Electronic
Style: Breakbeat, Progressive House, Progressive Trance
Quality: 320 kbps / 44.1 kHz
Time: 51:44 min
Size: 118.4 mb
Incl.: m3u, nfo, sfv, cover
Download
Ссылка:
http://ifolder.ru/24765409
Ссылка:
http://letitbit.net/download/63229.6697e05504d36e306a0a55744edb/Starecase-Firstfloor-%28HOPECD023%29-2002-FST.rar.html
-------------------------------------------------------
Starecase are DJ Paul Crossman (a.k.a. General Midi) and Al "Eels" Watson.
Великолепный альбом. Странно, что я раньше на него не натыкался. Звучание напоминает Гибридов.
Я модерирую когда захочу.
  
Цитата:
Звучание напоминает Гибридов.

да ну?
Когда прослушивал альбом, почему-то вспомнил именно их.
Это сообщение отредактировал barey
Track of the week: First Born - Heaven Awaits
barey спасибо! Faith прям из детства, можно сказать, помню ее еще со времен Tiesto - In Search Of Sunrise 3 smile.gif
картинка, оставленная пользователем
на ранние работы и ремиксы WOW похоже более, Гибриды - совсем из другой "оперы"
Track of the week: First Born - Heaven Awaits
Starecase - Firstfloor [2002] понравилось, спасибо!! smile.gif да, это не Hybrid, Way out West cool.gif хотя и гибрид ранний не далеко )))

Это сообщение отредактировал jamstyle2 - 20.07.11 в 17:27
Цитата:
General Midi - Entertainer / Bass Rokkaz (TCR.2004)

please!

Этот топик читают:

95 ответов с 17.11.05 в 1:33
Назад в Drum'n'bass / BreakBeat