Giles Smith & James Priestly

VA-Secretsundaze_Vol_2_Mixed_By_Giles_Smith_And_James_Priestly-(Advance)-2CD-2008-SECRETSUNDAZE

картинка, оставленная пользователем

ARTIST : VA
TITLE : Secretsundaze Volume 2 Mixed By Giles Smith And James Priestly
LABEL : Secretsundaze Music
GENRE : House
BITRATE : 196 kbps avg
SOURCE : CD (LP)
PLAYTIME : 02:34:43
SIZE : 227.MB
STORE DATE : 2008-00-00

Track List
----------

Disc 1/2
1. Urban Force - Untitled 2 (mike Huckaby Remix) 7:52
2. Claro Intellecto - Patience 3:42
3. Mr G - Sometimes I Cry (Radio Slave Panama Garage Remix) 6:15
4. Lawson, Finlow, Cappello - Montanna Freight Train 6:27
5. Motorbass - Ezio 4:07
6. Two Armadillos - Hawthorne's Theme 4:23
7. Cassy 02 - Idle Blues 5:13
8. Scott Grooves - Only 500 4:21
9. Brothers Vibe - Step Into It 8:40
10. Gillaume & The Coutu Dumonts - The Flying Dutchman 3:22
11. Two Armadillos - Hamlin 5:38
12. Nagano Kitchen - No Traffic In Nagano 5:08
13. Rozzo - Azzurro 5:07
14. Ron Trent & Chez Damier - The Morning Factory 9:24

Disc 2/2
1. Holy Ghost Inc. - Walk On Air 7:59
2. Lindbaek & Lindstrom - Alien In My Pocket (Lindbaek's Extended Disco Version) 3:25
3. James Pants - We're Through 4:15
4. Barltan Love Express - Theme 6:21
5. Afefe Iku - Mirror Dance 5:15
6. Sety - Mogane (Guillaume & The Coutu Dumonts Remix) 5:12
7. Afefe Iku - Bodydrummin' 3:21
8. Ronnie Parker - Bongcong Combination 4:15
9. The Rapture - I Need Your Love (Playgroup Dub) 4:34
10. Guy Gerber - Disorientation (Johnny D Remix) 7:18
11. The Mole - Acadian 8:44
12. Omar-S - Psychotic Photosynthesis 6:28
13. Robert Owens - Happy (James Priestley & Dan Berkson Remix) 7:57

Ссылка:
http://ifolder.ru/8480111
http://ifolder.ru/8480114
http://ifolder.ru/8480118

Ссылка:
http://rapidshare.com/files/152229493/V-S2.part1.rar
http://rapidshare.com/files/152229541/V-S2.part2.rar
http://rapidshare.com/files/152229901/V-S2.part3.rar


http://www.residentadvisor.net/news.aspx?id=9686

VA - Giles Smith & James Priestley - Secretsundaze Vol. 1

картинка, оставленная пользователем

Label: Secretsundaze
Catalog#: SSCD001
Format: 2xCD, Compilation, Mixed
Country: UK
Released: 2007
Genre: Electronic
Style: House, Deep House, Tech House, Garage House
Quality: 320kbp/s / 44100hz / Stereo
Length: 154:55min
Size: 372mb

Tracklist:

CD1: mixed by Giles Smith

01. Monne Autome - Autome
02. Boris Werner & Lauhaus - Legeres
03. The Offsetters - Love Ritual (Westpark Unit Dub)
04. Chupacabra - The Bigger Man
05. Einzelkind - Lumumba
06. Johnick - Planet Johnick
07. Counterplan - 90 Degrees (DJ Q Mix)
08. Ian Pooley - Don't You Be Afraid
09. Two Armadillos - Warriors
10. River Ocean Featuring India - Love And Happiness (Junior Boys Own Supadub)
11. Strobelight Network - Colder (Gabriel Ananda & Dominik Eulburg Remix)
12. Will Saul & Tam Cooper - Sequencial Circus
13. Larry Heard - Saga Of The Evil Queen

CD2: mixed by James Priestley

01. Reverso 68 - Piece Together (Part 2)
02. A Studio - Life's A Beach (Todd Terje Beach House Mix)
03. Dante & Dhula - The Basics (Smokin' Pasties Remix)
04. Catalyst - Silly Games (Angel Version)
05. Kissogram - My Friend Is A Seahorse (James Priestley & Dan Berkson's 'Barlz E Syntho' Dub)
06. Franck Roger - Rawsome
07. Manuer Tur - Acorado
08. Future Beat Investigators - All I Want
09. Yello - Lost Again (Greg Wilson Edit)
10. Michoacan - 2 Bullets
11. Andomat 3000 & Jan - Entr'acte Music
12. Kaos - Panopeeps
13. Redshape - Dog Day
14. Dan Berkson & James Priestley - Chariots
15. Doctor's Cat - Feel The Drive

Ссылка:
http://narod.ru/disk/3076011000/V-S1.part1.rar.html
http://narod.ru/disk/3076007000/V-S1.part2.rar.html

Ссылка:
http://rapidshare.com/files/152241842/V-S1.part1.rar
http://rapidshare.com/files/152241656/V-S1.part2.rar


http://www.myspace.com/gilessmithmusic
http://www.myspace.com/jamespriestley
http://www.discogs.com/artist/Giles+Smith
http://www.discogs.com/artist/James+Priestley
joi6760
Great Mi}{ Thank you) thumb.gif
u
Ничего так, надо и второй диск скачать!!!
Who has the cue file for vol. 2? Big thanks in advance
CUE нету?
~Никто не хочет всех спасти
И быть за то распятым,
Но каждый любит погрустить
О всяком непонятном~


VA-Secretsundaze_Vol_2_Mixed_By_Giles_Smith_And_James_Priestly-(Advance)-2CD-2008-SECRETSUNDAZE

Cue CD1
Цитата:
PERFORMER "VA"
TITLE "Secretsundaze Volume 2 Mixed By Giles Smith And James Priestly"
FILE "101-va-secretsundaze_vol_2_mixed_by_giles_smith_and_james_priestly.mp3" MP3
  TRACK 01 AUDIO
    TITLE "Untitled 2 (mike Huckaby Remix)"
    PERFORMER "Urban Force"
    FLAGS DCP
    INDEX 01 00:00:00
  TRACK 02 AUDIO
    TITLE "Patience"
    PERFORMER "Claro Intellecto"
    FLAGS DCP
    INDEX 01 07:52:14
  TRACK 03 AUDIO
    TITLE "Sometimes I Cry (Radio Slave Panama Garage Remix)"
    PERFORMER "Mr G"
    FLAGS DCP
    INDEX 01 11:34:42
  TRACK 04 AUDIO
    TITLE "Montanna Freight Train"
    PERFORMER "Lawson, Finlow, Cappello"
    FLAGS DCP
    INDEX 01 17:49:56
  TRACK 05 AUDIO
    TITLE "Ezio"
    PERFORMER "Motorbass"
    FLAGS DCP
    INDEX 01 24:16:35
  TRACK 06 AUDIO
    TITLE "Hawthorne's Theme"
    PERFORMER "Two Armadillos"
    FLAGS DCP
    INDEX 01 28:23:71
  TRACK 07 AUDIO
    TITLE "Idle Blues"
    PERFORMER "Cassy 02"
    FLAGS DCP
    INDEX 01 32:46:26
  TRACK 08 AUDIO
    TITLE "Only 500"
    PERFORMER "Scott Grooves"
    FLAGS DCP
    INDEX 01 37:59:55
  TRACK 09 AUDIO
    TITLE "Step Into It"
    PERFORMER "Brothers Vibe"
    FLAGS DCP
    INDEX 00 42:20:22
    INDEX 01 42:20:23
  TRACK 10 AUDIO
    TITLE "The Flying Dutchman"
    PERFORMER "Gillaume & The Coutu Dumonts"
    FLAGS DCP
    INDEX 01 51:00:34
  TRACK 11 AUDIO
    TITLE "Hamlin"
    PERFORMER "Two Armadillos"
    FLAGS DCP
    INDEX 01 54:22:28
  TRACK 12 AUDIO
    TITLE "No Traffic In Nagano"
    PERFORMER "Nagano Kitchen"
    FLAGS DCP
    INDEX 01 60:00:59
  TRACK 13 AUDIO
    TITLE "Azzurro"
    PERFORMER "Rozzo"
    FLAGS DCP
    INDEX 01 65:08:36
  TRACK 14 AUDIO
    TITLE "The Morning Factory"
    PERFORMER "Ron Trent & Chez Damier"
    FLAGS DCP
    INDEX 01 70:15:62

Cue CD2
Цитата:
PERFORMER "VA"
TITLE "Secretsundaze Volume 2 Mixed By Giles Smith And James Priestly"
FILE "201-va-secretsundaze_vol_2_mixed_by_giles_smith_and_james_priestly.mp3" MP3
  TRACK 01 AUDIO
    TITLE "Walk On Air"
    PERFORMER "Holy Ghost Inc."
    FLAGS DCP
    INDEX 01 00:00:00
  TRACK 02 AUDIO
    TITLE "Alien In My Pocket (Lindbaek's Extended Disco Version)"
    PERFORMER "Lindbaek & Lindstrom"
    FLAGS DCP
    INDEX 01 07:59:69
  TRACK 03 AUDIO
    TITLE "We're Through"
    PERFORMER "James Pants"
    FLAGS DCP
    INDEX 00 11:24:51
    INDEX 01 11:24:52
  TRACK 04 AUDIO
    TITLE "Theme"
    PERFORMER "Barltan Love Express"
    FLAGS DCP
    INDEX 00 15:39:29
    INDEX 01 15:39:30
  TRACK 05 AUDIO
    TITLE "Mirror Dance"
    PERFORMER "Afefe Iku"
    FLAGS DCP
    INDEX 00 22:00:59
    INDEX 01 22:00:60
  TRACK 06 AUDIO
    TITLE "Mogane (Guillaume & The Coutu Dumonts Remix)"
    PERFORMER "Sety"
    FLAGS DCP
    INDEX 00 27:15:65
    INDEX 01 27:15:66
  TRACK 07 AUDIO
    TITLE "Bodydrummin'"
    PERFORMER "Afefe Iku"
    FLAGS DCP
    INDEX 01 32:27:10
  TRACK 08 AUDIO
    TITLE "Bongcong Combination"
    PERFORMER "Ronnie Parker"
    FLAGS DCP
    INDEX 01 35:48:52
  TRACK 09 AUDIO
    TITLE "I Need Your Love (Playgroup Dub)"
    PERFORMER "The Rapture"
    FLAGS DCP
    INDEX 01 40:03:36
  TRACK 10 AUDIO
    TITLE "Disorientation (Johnny D Remix)"
    PERFORMER "Guy Gerber"
    FLAGS DCP
    INDEX 01 44:37:34
  TRACK 11 AUDIO
    TITLE "Acadian"
    PERFORMER "The Mole"
    FLAGS DCP
    INDEX 00 51:55:22
    INDEX 01 51:55:24
  TRACK 12 AUDIO
    TITLE "Psychotic Photosynthesis"
    PERFORMER "Omar-S"
    FLAGS DCP
    INDEX 01 60:39:45
  TRACK 13 AUDIO
    TITLE "Happy (James Priestley & Dan Berkson Remix)"
    PERFORMER "Robert Owens"
    FLAGS DCP
    INDEX 01 67:07:21
Я модерирую когда захочу.
10x all of you !!! thumb.gif

Это сообщение отредактировал vvg - 17.12.08 в 10:10
RA.160 Giles Smith
Genre: Deep House, Tech House
128 kbps | 80:22 min

картинка, оставленная пользователем

It's not often that we think of Giles Smith apart from James Priestley, but the duo that make up the DJing arm of secretsundaze are very much distinct characters. Smith is the deep house don, Priestley the disco diva in disguise. And while there are clearly common pockets of interest, it's clear that what they do is complementary - with few overlaps.
Smith's love of the deep kicked off in earnest via his residency for the legendary Faith parties, where he cut his teeth under the tutelage of X-Press 2 and Terry Farley. He soon left, however, to begin sundaze with Priestley, building up the brand into one of London's hottest events, and a summertime tradition for clued-up clubbers interested in coming down from a long weekend of partying. Since then, they've extended to become a worldwide phenomena, throwing parties in Barcelona, Ibiza and Miami (among other places) in addition to their usual summer schedule in the UK.
And Smith, as many of his DJ brethren have done, has also begun to produce music as well. Martin Dawson, AKA King Roc, and Smith form Two Armadillos and have had a string of releases on Dessous, Buzzin' Fly and Four:Twenty with much to come in the summer of 2009. Already released this year are remixes on Dessous and Fear of Flying and original productions - the Je Suis Differente EP and Rattlesnake 12-inch - on Sthlmaudio and Motivbank with work on BangBang! (2000 and One's new-ish house label) yet to come.
The work is, as always, defined by a deep house sound, and that's exactly what Smith provides on his RA podcast too. Detroit, New York, Paris, Amsterdam and London: Wherever there is house music being created, Smith has found it and put it in the mix. With it looking unlikely that there will be a secretsundaze, Vol. 3 CD release, consider it the next best thing.


01. Brawther - Asteriods And Star Dust
02. DJ Qu - Be Who You Wanna
03. Omar-S - 02
04. Fresh & Low - Besos De Los Angeles
05. Keith Worthy - Atlantis
06. Osunlade - Pride
07. Rick Wade - I Believe
08. Boris Horel - Close To Me
09. Digital Tongue - Deeper
10. David Duriez - Your Guide
11. 2000 & One - Wan Poko Moro
12. Jerome - Boom Bap
13. Jesper Dahlback - What's The Time Mr Templar?
14. Cobblestone Jazz - Fiesta
15. Russ Gabriel - Spirits
16. Agent X - Driftin
Download
Я модерирую когда захочу.
Thank you! biggrin.gif
What about vol.3?
can someone re up VA-Secretsundaze_Vol_2?

would be great

thx
pw: youtubi
can someone re up
Giles Smith & James Priestley - Secretsundaze Vol. 1

please thumb.gif
+1 please

Этот топик читают:

12 ответов с 09.10.08 в 6:37
Назад в House