Gustav Mahler (1860-1911)

картинка, оставленная пользователем




Dracula - Ballet on music by Mahler
This performance was by the Royal Winnipeg Ballet


Ссылка:
http://rapidshare.de/files/5341049/Dracula_Ballet_Mahler_Royal_Winnipeg_Ballet.part1.rar
http://rapidshare.de/files/5341059/Dracula_Ballet_Mahler_Royal_Winnipeg_Ballet.part2.rar
http://rapidshare.de/files/5340883/Dracula_Ballet_Mahler_Royal_Winnipeg_Ballet.part3.rar
Mahler - Symphony #9
(1938) conducted by Bruno Walter

Ссылка:
http://rapidshare.de/files/5146925/Mahler_Walter_Sym_9_Vienna_Phil.part1.rar
http://rapidshare.de/files/5146926/Mahler_Walter_Sym_9_Vienna_Phil.part2.rar
http://rapidshare.de/files/5146924/Mahler_Walter_Sym_9_Vienna_Phil.part3.rar

и Малера выложили. спасибо вам большое.

Добавлено:
thank you very much for this upload, i couldn't even hope to find it.
genetically still
картинка, оставленная пользователем
Britten's War Requiem
обьясните: по этой ссылке современная запись выступлений?
ага.
Mahler - Das Lied von der Erde (Song Of The Earth)

RSO Frankfurt - Eliahu Inbal
Jard van Nes & Peter Schreier

FLAC

Ссылка:
http://rapidshare.com/files/26054486/MahlerInbal.part1.rar
http://rapidshare.com/files/26056998/MahlerInbal.part2.rar
http://rapidshare.com/files/26059062/MahlerInbal.part3.rar
перезалейте плиз на http://www.ifolder.ru/
Gustav Mahler — The Great Symphonies.
картинка, оставленная пользователем
Диск 1:
Symphony no.6 in A minor, "The Tragical"
1. Allegro energico ma non troppo
2. Scherzo
3. Andante
4. Finale: Allegro moderato
Диск 2:
Symphony no.5 in C# major
1. Funeral March
2. Violently agitated
3. Scherzo
4. Adagietto
5. Rondo — Finale

http://www.megaupload.com/?d=0KEWKVDO
картинка, оставленная пользователем

Jessye Norman - Schubert / Mahler

Irwin Cage (Piano)

320 kbps

01. Schwesterngruß / D. 762 - Schubert
02. Der Zwerg / D. 771 . Schubert
03. Raste, Krieger / D. 837 - Schubert
04. Jaeger, ruhe von der Jagd D. 838 / Schubert
05. Ave Maria / D. 839 - Schubert
06. Das irdische Leben / Mahler - Des Knaben Wunderhorn
07. Wo die schoenen Trompeten blasen / Mahler - Des Knaben Wunderhorn
08. Urlicht / Mahler - Des Knaben Wunderhorn
09. Liebst Du um Schoenheit / Mahler - Zwei Rueckert Lieder
10. Ich bin der Welt abhanden gekommen / Mahler - Zwei Rueckert Lieder

Ссылка:
http://rapidshare.com/files/43419004/JessyeMahler.part1.rar
http://www.megaupload.com/?d=19C5V78R
"Жалобная песнь" (320 битрейт)

Track listing:

1. Waldmarchen (28:08)
2. Der Spielmann (17:38)
3. Hochzeitsstuck (18:32)

Musicians:

Susan Dunn - soprano
Brigitte Fassbaender - mezzo-soprano
Werner Hollweg - tenor
Andreas Schmidt - bass
Markus Baur - boy alto
Stadtischer Musikverein Dusseldorf (chorus master Hartmut Schmidt)
Deutsches Symphonie-Orchester Berlin
RICCARDO CHAILLY

i-folder (часть 1)
i-folder (часть 2)

Симфония 7 (320)

i-folder (часть 1)
i-folder (часть 2)
Возможно, у кого-то есть:

Ruckert Lieder (1901–1902)
Kindertotenlieder (1901–1904)

???

Заранее спасибо!
Сумеречный


А пароль на 7 симфонию?
Mahler _ Sym.2

Ссылка:
http://noraboo.nuwen.net/pub/other%20stuff/Mahler%20_%20Sym.2%20c-moll%20_Resurrection_%20(Ot/
http://www.ripi-test.ru/node/504
GUSTAV MAHLER - Symphonyes
картинка, оставленная пользователем

Symphony No. 4
1) I. Bedachtig. Nicht eilen (15:47)
2) II. In gemachlicher Bewegung. Ohne Hast (8:45)
3) III. Ruhevoll (21:02)
4) IV. Das himmlische Leben. Sehr behaglich (8:45)

SYLVIA STAHLMAN, Soprano
CONCERTGEBOUW ORCHESTRA
SIR GEORG SOLTI
Ссылка:
http://www.mediafire.com/?m34vz4ymnzy

Symphony No. 5
1) I. Trauermarsch (11:57)
2) II. Sturmisch bewegt. Mit grosster Vehemenz (13:58)
3) III. Scherzo: Kraftig, nicht zu schnell (16:44)
4) IV. Adagietto: Sehr langsam (9:51)
5) V. Rondo-Finale: Allegro(13:41)
CHICAGO SYMPHONY ORCHESTRA
SIR GEORG SOLTI
1999 The Decca Record Company Limited, London
Ссылка:
http://www.mediafire.com/?kxvcytbayxx

Symphony No.9 in D
картинка, оставленная пользователем
1. Andante comodo (28:10)
2. Im Tempo eines gemechlichen Lendler. Etwas tappisch und sehr derb (16:38)
3. Rondo. Burleske. Allegro assai. Sehr trotzig (12:45)
4. Adagio. Sehr langsam und noch zuruckhaltend (26:49)

HERBERT VON KARAJAN
BERLINER PHILHARMONIKER
Ссылка:
http://www.mediafire.com/?bxejjndqcoo
http://www.mediafire.com/?9ibxzczbi2y

Symphony No.10 in F sharp (unfinished)
Ed. Deryck Cooke
картинка, оставленная пользователем
1. Adagio [25:50]
2. Scherzo [11:08]
3. Purgatorio [4:01]
4. Scherzo [11:59]
5. Finale [25:02]

Wiener Philharmoniker
Daniel Harding
Deutsche Grammophon GmbH, Hamburg
Ссылка:
http://www.mediafire.com/?b2zmy52wif3
http://www.mediafire.com/?myzymmmznud
дайте восьмую симфонию, пожалуйста)
Gustav Mahler - Complete Symphonies and Orchestral Songs

картинка, оставленная пользователем

Complete Symphonies and Orchestral Songs (Disc 01)
FLAC
303MB

01. Symphony No. 1 - i. Langsam. Schleppend. Im Anfang sehr gemächlich 16:30
02. Symphony No. 1 - ii. Kräftig bewegt, doch nicht zu schnell - Trio. Recht gemächlich 09:01
03. Symphony No. 1 - iii. Feierlich und gemessen, ohne zu schleppen 10:27
04. Symphony No. 1 - iv. Stürmisch bewegt 20:32
05. Songs of a Wayfarer - i. Wenn mein Schatz Hochzeit macht 04:30
06. Songs of a Wayfarer - ii. Ging heut morgen übers Feld 04:06
07. Songs of a Wayfarer - iii. Ich hab ein glühend Messer 03:20
08. Songs of a Wayfarer - iv. Die zwei blauen Augen 05:34

Ссылка:
http://rghost.ru/895426
http://rghost.ru/895429

Ссылка:
http://rapidshare.com/files/341648829/GstvMhlr-CSnOS_01_FLAC.part1.rar
http://rapidshare.com/files/341650717/GstvMhlr-CSnOS_01_FLAC.part2.rar


Complete Symphonies and Orchestral Songs (Disc 02)
FLAC
270MB

01. Symphony No. 3 - i. Part I. Kraftig. Entschieden 34:52
02. Symphony No. 3 - ii. Part II. Tempo di Menuetto. Sehr massig 10:46
03. Symphony No. 3 - iii. Part II. Comodo. Scherzando. Ohne Hast 18:32
Ссылка:
http://rghost.ru/895431
http://rghost.ru/895436

Ссылка:
http://rapidshare.com/files/341651882/GstvMhlr-CSnOS_02_FLAC.part1.rar
http://rapidshare.com/files/341652313/GstvMhlr-CSnOS_02_FLAC.part2.rar


Complete Symphonies and Orchestral Songs (Disc 03)
FLAC
265MB

01. Symphony No. 3 - iv. Part II. Sehr langsam. Misterioso. Durchaus 09:31
02. Symphony No. 3 - v. Part II. Lustig im Tempo und keck im Ausdruck 04:07
03. Symphony No. 3 - vi. Part II. Langsam. Ruhevoll. Empfunden 28:26
04. Symphony No. 2 - i. Allegro maestoso (Totenfeier) 25:09
Ссылка:
http://rghost.ru/895438
http://rghost.ru/895441

Ссылка:
http://rapidshare.com/files/341653268/GstvMhlr-CSnOS_03_FLAC.part1.rar
http://rapidshare.com/files/341653686/GstvMhlr-CSnOS_03_FLAC.part2.rar


PS: залью все диски, постепенно.
Complete Symphonies and Orchestral Songs (Disc 04)
FLAC
275MB


01. Symphony No. 2 - ii. Andanta moderato 12:19
02. Symphony No. 2 - iii. [Scherzo], In ruhig fliessender Bewegung - attaca 11:25
03. Symphony No. 2 - iv. Ulrich, Sehr feierlich, aber schlicht 06:18
04. Symphony No. 2 - v. Im Tempo Des Scherzo, Wild herausfahrend 38:41
Ссылка:
http://rghost.ru/895549
http://rghost.ru/895551

Ссылка:
http://rapidshare.com/files/341676704/GstvMhlr-CSnOS_04_FLAC.part1.rar
http://rapidshare.com/files/341676942/GstvMhlr-CSnOS_04_FLAC.part2.rar


Complete Symphonies and Orchestral Songs (Disc 05)
FLAC
239MB


01. Symphony No. 4 - i. Bedachtig. Nicht eilen 17:38
02. Symphony No. 4 - ii. In gemachlicher Bewegung. Ohne Hast 10:14
03. Symphony No. 4 - iii. Ruhevoll 20:33
04. Symphony No. 4 - iv. Sehr behaglich 08:42
Ссылка:
http://rghost.ru/895553
http://rghost.ru/895554

Ссылка:
http://rapidshare.com/files/341677462/GstvMhlr-CSnOS_05_FLAC.part1.rar
http://rapidshare.com/files/341677657/GstvMhlr-CSnOS_05_FLAC.part2.rar


Complete Symphonies and Orchestral Songs (Disc 06)
FLAC
234MB


01. Lieder from Des Knaben Wunderhorn - i. Der Schildwache Nachtlied 06:03
02. Lieder from Des Knaben Wunderhorn - ii. Wer hat dies Liedlein erdacht? 02:13
03. Lieder from Des Knaben Wunderhorn - iii. Der Tamboursg'sell 05:18
04. Lieder from Des Knaben Wunderhorn - iv. Das irdische Leben 02:57
05. Lieder from Des Knaben Wunderhorn - v. Verlorne Müh' 03:03
06. Lieder from Des Knaben Wunderhorn - vi. Des Antonius von Padua Fischpredigt 03:43
07. Lieder from Des Knaben Wunderhorn - vii. Revelge 06:47
08. Lieder from Des Knaben Wunderhorn - viii. Rheinlegendchen 03:35
09. Lieder from Des Knaben Wunderhorn - ix. Lob des hohen Verstandes 02:34
10. Lieder from Des Knaben Wunderhorn - x. Wo die schönen Trompeten blasen 08:29
11. Lieder from Des Knaben Wunderhorn - xi. Lied des Verfolgten im Turm 04:37
12. Lieder from Des Knaben Wunderhorn - xii. Trost im Unglück 02:28
13. Lieder from Des Knaben Wunderhorn - xiii. Urlicht 05:49
Ссылка:
http://rghost.ru/895555
http://rghost.ru/895556

Ссылка:
http://rapidshare.com/files/341678076/GstvMhlr-CSnOS_06_FLAC.part1.rar
http://rapidshare.com/files/341678267/GstvMhlr-CSnOS_06_FLAC.part2.rar
Complete Symphonies and Orchestral Songs (Disc 07)
FLAC
340 MB


01. Symphony No. 5 - i. Part I - Trauermarsch. In gemessenem Schritt. Streng. Wie ein Kondukt 14:35
02. Symphony No. 5 - ii. Part I - Sturmisch bewegt. Mit grosster Vehemenz 15:05
03. Symphony No. 5 - iii. Part II - Scherzo. Kraftig, nicht zu schnell 19:05
04. Symphony No. 5 - iv. Part III - Adagietto. Sehr langsam 11:16
05. Symphony No. 5 - v. Part III - Rondo-Finale. Allegro - Allegro giocoso. Frisch 15:02
Ссылка:
http://rghost.ru/898489
http://rghost.ru/899936

Ссылка:
http://rapidshare.com/files/342127208/GstvMhlr-CSnOS_07_FLAC.part1.rar
http://rapidshare.com/files/342129208/GstvMhlr-CSnOS_07_FLAC.part2.rar


Complete Symphonies and Orchestral Songs (Disc 08)
FLAC
228 MB


01. Symphony No. 6 - i. Allegro energico, ma non troppo. Heftig, aber markig 23:17
02. Symphony No. 6 - ii. Scherzo. Wuchtig 14:16
03. Symphony No. 6 - iii. Andante moderato 16:19
Ссылка:
http://rghost.ru/900511
http://rghost.ru/900512

Ссылка:
http://rapidshare.com/files/342131314/GstvMhlr-CSnOS_08_FLAC.part1.rar
http://rapidshare.com/files/342131849/GstvMhlr-CSnOS_08_FLAC.part2.rar


Complete Symphonies and Orchestral Songs (Disc 09)
FLAC
252 MB


01. Symphony No. 6 - iv. Finale. Allegro moderato - Allegro energico 33:29
02. Songs on the Death of Children - i. Nun will die Sonn' so hell aufghen 05:59
03. Songs on the Death of Children - ii. Nun seh' ich wohl, warum so dunkle Flammen 05:11
04. Songs on the Death of Children - iii. Wenn dein Mutterlein 06:05
05. Songs on the Death of Children - iv. Oft denk' ich, sie sind nur ausgegangen 03:30
06. Songs on the Death of Children - v. In diesem Wetter, in diesem Braus 07:20
Ссылка:
http://rghost.ru/900515
http://rghost.ru/900527

Ссылка:
http://rapidshare.com/files/342132769/GstvMhlr-CSnOS_09_FLAC.part1.rar
http://rapidshare.com/files/342134239/GstvMhlr-CSnOS_09_FLAC.part2.rar


Complete Symphonies and Orchestral Songs (Disc 10)
FLAC
262 MB


01. Symphony No. 7 - i. Langsam (Adagio) - Allegro risoluto, ma non troppo 21:38
02. Symphony No. 7 - ii. Nachtmusik. Allegro moderato 17:08
03. Symphony No. 7 - iii. Scherzo. Schattenhaft 10:32
04. Symphony No. 7 - iv. Andante amoroso 14:47
Ссылка:
http://rghost.ru/900538
http://rghost.ru/900542

Ссылка:
http://rapidshare.com/files/342139632/GstvMhlr-CSnOS_10_FLAC.part1.rar
http://rapidshare.com/files/342140256/GstvMhlr-CSnOS_10_FLAC.part2.rar
Complete Symphonies and Orchestral Songs (Disc 11)
FLAC
172 MB


01. Symphony No. 7 - v. Rondo-Finale. Tempo I (Allegro ordinario) 18:40
02. Ruckert Lieder - i. Liebst du um Schonheit 02:48
03. Ruckert Lieder - ii. Blicke mir nicht in die Lieder 01:30
04. Ruckert Lieder - iii. Ich atmet' einen linden Duft 03:00
05. Ruckert Lieder - iv. Um Mitternacht 07:22
06. Ruckert Lieder - v. Ich bin der Welt abhanden gekommen 07:48
Ссылка:
http://rghost.ru/903223

Ссылка:
http://rapidshare.com/files/342525542/GstvMhlr-CSnOS_11_FLAC.rar

Complete Symphonies and Orchestral Songs (Disc 12)
FLAC
244 MB


01. Symphony No. 10 - Andante - Adagio 26:13
02. Symphony No. 8, Part I, Hymnus "Veni, creator spiritus" - "Veni, creator spiritus" 01:31
03. Symphony No. 8, Part I, Hymnus "Veni, creator spiritus" - "Imple superna gratia" 03:16
04. Symphony No. 8, Part I, Hymnus "Veni, creator spiritus" - "Infirma nostri corporis" 02:44
05. Symphony No. 8, Part I, Hymnus "Veni, creator spiritus" - Tempo I. 01:13
06. Symphony No. 8, Part I, Hymnus "Veni, creator spiritus" - "Infirma nostri corporis" 03:15
07. Symphony No. 8, Part I, Hymnus "Veni, creator spiritus" - "Accende lumen sensibus" 04:23
08. Symphony No. 8, Part I, Hymnus "Veni, creator spiritus" - "Veni, creator spiritus" 04:27
09. Symphony No. 8, Part I, Hymnus "Veni, creator spiritus" - "Gloria sit Patri Domino" 03:22
Ссылка:
http://rghost.ru/903557
http://rghost.ru/903561

Ссылка:
http://rapidshare.com/files/342527097/GstvMhlr-CSnOS_12_FLAC.part1.rar
http://rapidshare.com/files/342529384/GstvMhlr-CSnOS_12_FLAC.part2.rar

Complete Symphonies and Orchestral Songs (Disc 13)
FLAC
278 MB


01. Symphony No. 8, Part II, Final Scene from Goethe's "Faust" - Poco adagio 06:26
02. Symphony No. 8, Part II, Final Scene from Goethe's "Faust" - Piu mosso 03:05
03. Symphony No. 8, Part II, Final Scene from Goethe's "Faust" - "Waldung, sie schwankt heran" 04:31
04. Symphony No. 8, Part II, Final Scene from Goethe's "Faust" - "Ewiger Wonnebrand" 01:35
05. Symphony No. 8, Part II, Final Scene from Goethe's "Faust" - "Wie Felsenabgrund mir zu Fusen" 04:29
06. Symphony No. 8, Part II, Final Scene from Goethe's "Faust" - "Gerettet ist das edle Glied der Geisterwelt vom Bosen" 01:06
07. Symphony No. 8, Part II, Final Scene from Goethe's "Faust" - "Jene Rosen aus den Handen" 01:49
08. Symphony No. 8, Part II, Final Scene from Goethe's "Faust" - "Uns bleibt ein Erdenrest" 02:22
09. Symphony No. 8, Part II, Final Scene from Goethe's "Faust" - Im anfang noch etwas gehalten 01:22
10. Symphony No. 8, Part II, Final Scene from Goethe's "Faust" - "Hochste Herrscherin der Welt!" 04:24
11. Symphony No. 8, Part II, Final Scene from Goethe's "Faust" - "Dir, der Unberuhrbaren" 03:55
12. Symphony No. 8, Part II, Final Scene from Goethe's "Faust" - "Bei der Liebe, die den Fusen" 04:50
13. Symphony No. 8, Part II, Final Scene from Goethe's "Faust" - "Neige, neige, du Ohnegleiche" 01:13
14. Symphony No. 8, Part II, Final Scene from Goethe's "Faust" - "Er uberwachst uns schon" 03:56
15. Symphony No. 8, Part II, Final Scene from Goethe's "Faust" - "Komm! hebe dich zu hohern Spharen!" 01:22
16. Symphony No. 8, Part II, Final Scene from Goethe's "Faust" - "Blicket auf zum Retterblick, alle reuig Zarten" 06:01
17. Symphony No. 8, Part II, Final Scene from Goethe's "Faust" - "Alles Vergangliche ist nur ein Gleichnis 06:27
Ссылка:
http://rghost.ru/903794
http://rghost.ru/903891

Ссылка:
http://rapidshare.com/files/342545784/GstvMhlr-CSnOS_13_FLAC.part1.rar
http://rapidshare.com/files/342555381/GstvMhlr-CSnOS_13_FLAC.part2.rar

Complete Symphonies and Orchestral Songs (Disc 14)
FLAC
308 MB


01. The Song of the Earth - i. Das Trinklied vom Jammer der Erde 08:31
02. The Song of the Earth - ii. Der Einsame im Herbst 11:22
03. The Song of the Earth - iii. Von der Jugend 03:11
04. The Song of the Earth - iv. Von der Schonheit 08:10
05. The Song of the Earth - v. Der Trunkene im Fruhling 04:39
06. The Song of the Earth - vi. Der Abscheid 31:02
Ссылка:
http://rghost.ru/903899
http://rghost.ru/903906

Ссылка:
http://rapidshare.com/files/342559707/GstvMhlr-CSnOS_14_FLAC.part1.rar
http://rapidshare.com/files/342578269/GstvMhlr-CSnOS_14_FLAC.part2.rar

Complete Symphonies and Orchestral Songs (Disc 15)
FLAC
202 MB


01. Symphony No. 9 - i. Andante comodo 30:03
02. Symphony No. 9 - ii. Im Tempo eines gemachlichen Landlers 17:31
Ссылка:
http://rghost.ru/903911
http://rghost.ru/903916

Ссылка:
http://rapidshare.com/files/342580836/GstvMhlr-CSnOS_15_FLAC.part1.rar
http://rapidshare.com/files/342583203/GstvMhlr-CSnOS_15_FLAC.part2.rar

Complete Symphonies and Orchestral Songs (Disc 16)
FLAC
184 MB


01. Symphony No. 9 - iii. Rondo-Burleke. Allegro assai. Sehr trotzig 11:52
02. Symphony No. 9 - iv. Adagio. Sehr langsam und noch zuruckhaltend 29:45
Ссылка:
http://rghost.ru/903918

Ссылка:
http://rapidshare.com/files/342585872/GstvMhlr-CSnOS_16_FLAC.rar
combined log
Ссылка:
Exact Audio Copy V0.99 prebeta 5 from 4. May 2009

EAC extraction logfile from 19. January 2010, 18:12

Complete Symphonies and Orchestral Songs (Disc 01) / Mahler

Used drive  : Optiarc DVD RW AD-7241S   Adapter: 2  ID: 2

Read mode               : Secure
Utilize accurate stream : Yes
Defeat audio cache      : Yes
Make use of C2 pointers : No

Read offset correction                      : 48
Overread into Lead-In and Lead-Out          : No
Fill up missing offset samples with silence : Yes
Delete leading and trailing silent blocks   : No
Null samples used in CRC calculations       : Yes
Used interface                              : Native Win32 interface for Win NT & 2000
Gap handling                                : Appended to previous track

Used output format              : User Defined Encoder
Selected bitrate                : 128 kBit/s
Quality                         : High
Add ID3 tag                     : No
Command line compressor         : C:\Program Files (x86)\Exact Audio Copy\Flac\flac.exe
Additional command line options : -V -8 -T "artist=%a" -T "title=%t" -T "album=%g" -T "date=%y" -T "tracknumber=%n" -T "genre=%m" %s


TOC of the extracted CD

    Track |   Start  |  Length  | Start sector | End sector
   ---------------------------------------------------------
       1  |  0:00.32 | 16:30.00 |        32    |    74281  
       2  | 16:30.32 |  9:01.00 |     74282    |   114856  
       3  | 25:31.32 | 10:27.00 |    114857    |   161881  
       4  | 35:58.32 | 20:32.00 |    161882    |   254281  
       5  | 56:30.32 |  4:30.00 |    254282    |   274531  
       6  | 61:00.32 |  4:06.00 |    274532    |   292981  
       7  | 65:06.32 |  3:20.00 |    292982    |   307981  
       8  | 68:26.32 |  5:34.00 |    307982    |   333031  


Track  1

    Filename E:\EAC\Complete Symphonies and Orchestral Songs (Disc 01)\Mahler [1998-FLAC-CD] - Symphony No. 1 - i. Langsam. Schleppend. Im Anfang sehr gemдchlich.wav

    Pre-gap length  0:00:02.42

    Peak level 99.9 %
    Track quality 100.0 %
    Test CRC 17EBB0C3
    Copy CRC 17EBB0C3
    Accurately ripped (confidence 6)  [586A7851]
    Copy OK

Track  2

    Filename E:\EAC\Complete Symphonies and Orchestral Songs (Disc 01)\Mahler [1998-FLAC-CD] - Symphony No. 1 - ii. Krдftig bewegt, doch nicht zu schnell - Trio. Recht gemдchlich.wav

    Peak level 99.9 %
    Track quality 100.0 %
    Test CRC 23D4B752
    Copy CRC 23D4B752
    Accurately ripped (confidence 6)  [C5113DD3]
    Copy OK

Track  3

    Filename E:\EAC\Complete Symphonies and Orchestral Songs (Disc 01)\Mahler [1998-FLAC-CD] - Symphony No. 1 - iii. Feierlich und gemessen, ohne zu schleppen.wav

    Peak level 94.9 %
    Track quality 100.0 %
    Test CRC F7632FE6
    Copy CRC F7632FE6
    Accurately ripped (confidence 6)  [518FB0A0]
    Copy OK

Track  4

    Filename E:\EAC\Complete Symphonies and Orchestral Songs (Disc 01)\Mahler [1998-FLAC-CD] - Symphony No. 1 - iv. Stьrmisch bewegt.wav

    Peak level 99.9 %
    Track quality 100.0 %
    Test CRC 8FFC5CBF
    Copy CRC 8FFC5CBF
    Accurately ripped (confidence 6)  [81D1BD37]
    Copy OK

Track  5

    Filename E:\EAC\Complete Symphonies and Orchestral Songs (Disc 01)\Mahler [1998-FLAC-CD] - Songs of a Wayfarer - i. Wenn mein Schatz Hochzeit macht.wav

    Pre-gap length  0:00:20.00

    Peak level 45.6 %
    Track quality 100.0 %
    Test CRC E455278C
    Copy CRC E455278C
    Accurately ripped (confidence 6)  [2F5714F6]
    Copy OK

Track  6

    Filename E:\EAC\Complete Symphonies and Orchestral Songs (Disc 01)\Mahler [1998-FLAC-CD] - Songs of a Wayfarer - ii. Ging heut morgen ьbers Feld.wav

    Peak level 62.4 %
    Track quality 100.0 %
    Test CRC 794FFB12
    Copy CRC 794FFB12
    Accurately ripped (confidence 6)  [AE6D0700]
    Copy OK

Track  7

    Filename E:\EAC\Complete Symphonies and Orchestral Songs (Disc 01)\Mahler [1998-FLAC-CD] - Songs of a Wayfarer - iii. Ich hab ein glьhend Messer.wav

    Peak level 99.9 %
    Track quality 100.0 %
    Test CRC F638C847
    Copy CRC F638C847
    Accurately ripped (confidence 6)  [42B2BACC]
    Copy OK

Track  8

    Filename E:\EAC\Complete Symphonies and Orchestral Songs (Disc 01)\Mahler [1998-FLAC-CD] - Songs of a Wayfarer - iv. Die zwei blauen Augen.wav

    Peak level 34.4 %
    Track quality 100.0 %
    Test CRC 9C5CA1F1
    Copy CRC 9C5CA1F1
    Accurately ripped (confidence 6)  [F1204BE2]
    Copy OK


All tracks accurately ripped

No errors occurred

End of status report

Exact Audio Copy V0.99 prebeta 5 from 4. May 2009

EAC extraction logfile from 19. January 2010, 18:52

Mahler / Complete Symphonies and Orchestral Songs (Disc 02)

Used drive  : Optiarc DVD RW AD-7241S   Adapter: 2  ID: 2

Read mode               : Secure
Utilize accurate stream : Yes
Defeat audio cache      : Yes
Make use of C2 pointers : No

Read offset correction                      : 48
Overread into Lead-In and Lead-Out          : No
Fill up missing offset samples with silence : Yes
Delete leading and trailing silent blocks   : No
Null samples used in CRC calculations       : Yes
Used interface                              : Native Win32 interface for Win NT & 2000
Gap handling                                : Appended to previous track

Used output format              : User Defined Encoder
Selected bitrate                : 128 kBit/s
Quality                         : High
Add ID3 tag                     : No
Command line compressor         : C:\Program Files (x86)\Exact Audio Copy\Flac\flac.exe
Additional command line options : -V -8 -T "artist=%a" -T "title=%t" -T "album=%g" -T "date=%y" -T "tracknumber=%n" -T "genre=%m" %s


TOC of the extracted CD

    Track |   Start  |  Length  | Start sector | End sector
   ---------------------------------------------------------
       1  |  0:00.00 | 34:52.00 |         0    |   156899  
       2  | 34:52.00 | 10:46.00 |    156900    |   205349  
       3  | 45:38.00 | 18:32.00 |    205350    |   288749  


Track  1

    Filename E:\EAC\Mahler\Complete Symphonies and Orchestral Songs (Disc 02) [1998-FLAC-CD] - Symphony No. 3 - i. Part I. Kraftig. Entschieden.wav

    Pre-gap length  0:00:02.00

    Peak level 99.9 %
    Track quality 99.9 %
    Test CRC 79375D6B
    Copy CRC 79375D6B
    Accurately ripped (confidence 7)  [4E7E7839]
    Copy OK

Track  2

    Filename E:\EAC\Mahler\Complete Symphonies and Orchestral Songs (Disc 02) [1998-FLAC-CD] - Symphony No. 3 - ii. Part II. Tempo di Menuetto. Sehr massig.wav

    Peak level 75.2 %
    Track quality 100.0 %
    Test CRC 813E843A
    Copy CRC 813E843A
    Accurately ripped (confidence 7)  [FA1D67FF]
    Copy OK

Track  3

    Filename E:\EAC\Mahler\Complete Symphonies and Orchestral Songs (Disc 02) [1998-FLAC-CD] - Symphony No. 3 - iii. Part II. Comodo. Scherzando. Ohne Hast.wav

    Peak level 99.9 %
    Track quality 100.0 %
    Test CRC DD2520C2
    Copy CRC DD2520C2
    Accurately ripped (confidence 7)  [30F41357]
    Copy OK


All tracks accurately ripped

No errors occurred

End of status report

Exact Audio Copy V0.99 prebeta 5 from 4. May 2009

EAC extraction logfile from 19. January 2010, 19:52

Mahler / Complete Symphonies and Orchestral Songs (Disc 03)

Used drive  : Optiarc DVD RW AD-7241S   Adapter: 2  ID: 2

Read mode               : Secure
Utilize accurate stream : Yes
Defeat audio cache      : Yes
Make use of C2 pointers : No

Read offset correction                      : 48
Overread into Lead-In and Lead-Out          : No
Fill up missing offset samples with silence : Yes
Delete leading and trailing silent blocks   : No
Null samples used in CRC calculations       : Yes
Used interface                              : Native Win32 interface for Win NT & 2000
Gap handling                                : Appended to previous track

Used output format              : User Defined Encoder
Selected bitrate                : 128 kBit/s
Quality                         : High
Add ID3 tag                     : No
Command line compressor         : C:\Program Files (x86)\Exact Audio Copy\Flac\flac.exe
Additional command line options : -V -8 -T "artist=%a" -T "title=%t" -T "album=%g" -T "date=%y" -T "tracknumber=%n" -T "genre=%m" %s


TOC of the extracted CD

    Track |   Start  |  Length  | Start sector | End sector
   ---------------------------------------------------------
       1  |  0:00.00 |  9:31.70 |         0    |    42894  
       2  |  9:31.70 |  4:07.05 |     42895    |    61424  
       3  | 13:39.00 | 28:26.00 |     61425    |   189374  
       4  | 42:05.00 | 25:09.00 |    189375    |   302549  


Track  1

    Filename E:\EAC\Mahler\Complete Symphonies and Orchestral Songs (Disc 03) [1998-FLAC-CD] - Symphony No. 3 - iv. Part II. Sehr langsam. Misterioso. Durchaus.wav

    Pre-gap length  0:00:02.00

    Peak level 53.5 %
    Track quality 100.0 %
    Test CRC A47B6FB1
    Copy CRC A47B6FB1
    Accurately ripped (confidence 7)  [B5415801]
    Copy OK

Track  2

    Filename E:\EAC\Mahler\Complete Symphonies and Orchestral Songs (Disc 03) [1998-FLAC-CD] - Symphony No. 3 - v. Part II. Lustig im Tempo und keck im Ausdruck.wav

    Peak level 99.9 %
    Track quality 99.9 %
    Test CRC 085F3A4F
    Copy CRC 085F3A4F
    Accurately ripped (confidence 7)  [AEF32575]
    Copy OK

Track  3

    Filename E:\EAC\Mahler\Complete Symphonies and Orchestral Songs (Disc 03) [1998-FLAC-CD] - Symphony No. 3 - vi. Part II. Langsam. Ruhevoll. Empfunden.wav

    Peak level 99.9 %
    Track quality 100.0 %
    Test CRC B519AB93
    Copy CRC B519AB93
    Accurately ripped (confidence 7)  [24F7D8D2]
    Copy OK

Track  4

    Filename E:\EAC\Mahler\Complete Symphonies and Orchestral Songs (Disc 03) [1998-FLAC-CD] - Symphony No. 2 - i. Allegro maestoso (Totenfeier).wav

    Pre-gap length  0:00:25.00

    Peak level 99.9 %
    Track quality 100.0 %
    Test CRC 8EB14D33
    Copy CRC 8EB14D33
    Accurately ripped (confidence 7)  [6C4A4EF1]
    Copy OK


All tracks accurately ripped

No errors occurred

End of status report

Exact Audio Copy V0.99 prebeta 5 from 4. May 2009

EAC extraction logfile from 19. January 2010, 20:53

Mahler / Complete Symphonies and Orchestral Songs (Disc 04)

Used drive  : Optiarc DVD RW AD-7241S   Adapter: 2  ID: 2

Read mode               : Secure
Utilize accurate stream : Yes
Defeat audio cache      : Yes
Make use of C2 pointers : No

Read offset correction                      : 48
Overread into Lead-In and Lead-Out          : No
Fill up missing offset samples with silence : Yes
Delete leading and trailing silent blocks   : No
Null samples used in CRC calculations       : Yes
Used interface                              : Native Win32 interface for Win NT & 2000
Gap handling                                : Appended to previous track

Used output format              : User Defined Encoder
Selected bitrate                : 128 kBit/s
Quality                         : High
Add ID3 tag                     : No
Command line compressor         : C:\Program Files (x86)\Exact Audio Copy\Flac\flac.exe
Additional command line options : -V -8 -T "artist=%a" -T "title=%t" -T "album=%g" -T "date=%y" -T "tracknumber=%n" -T "genre=%m" %s


TOC of the extracted CD

    Track |   Start  |  Length  | Start sector | End sector
   ---------------------------------------------------------
       1  |  0:00.00 | 12:19.00 |         0    |    55424  
       2  | 12:19.00 | 11:25.65 |     55425    |   106864  
       3  | 23:44.65 |  6:18.37 |    106865    |   135251  
       4  | 30:03.27 | 38:41.48 |    135252    |   309374  


Track  1

    Filename E:\EAC\Mahler\Complete Symphonies and Orchestral Songs (Disc 04) [1998-FLAC-CD] - Symphony No. 2 - ii. Andanta moderato.wav

    Pre-gap length  0:00:02.00

    Peak level 99.3 %
    Track quality 100.0 %
    Test CRC F81ADAD2
    Copy CRC F81ADAD2
    Accurately ripped (confidence 5)  [3D12FD8F]
    Copy OK

Track  2

    Filename E:\EAC\Mahler\Complete Symphonies and Orchestral Songs (Disc 04) [1998-FLAC-CD] - Symphony No. 2 - iii. [Scherzo], In ruhig fliessender Bewegung - attaca.wav

    Pre-gap length  0:00:00.02

    Peak level 99.9 %
    Track quality 100.0 %
    Test CRC D4D7BE75
    Copy CRC D4D7BE75
    Accurately ripped (confidence 5)  [BE518F8F]
    Copy OK

Track  3

    Filename E:\EAC\Mahler\Complete Symphonies and Orchestral Songs (Disc 04) [1998-FLAC-CD] - Symphony No. 2 - iv. Ulrich, Sehr feierlich, aber schlicht.wav

    Pre-gap length  0:00:00.02

    Peak level 41.2 %
    Track quality 100.0 %
    Test CRC 9E3FD4C1
    Copy CRC 9E3FD4C1
    Accurately ripped (confidence 5)  [CF8915F9]
    Copy OK

Track  4

    Filename E:\EAC\Mahler\Complete Symphonies and Orchestral Songs (Disc 04) [1998-FLAC-CD] - Symphony No. 2 - v. Im Tempo Des Scherzo, Wild herausfahrend.wav

    Pre-gap length  0:00:00.02

    Peak level 99.9 %
    Track quality 100.0 %
    Test CRC AE3C38F4
    Copy CRC AE3C38F4
    Accurately ripped (confidence 5)  [543A6DE8]
    Copy OK


All tracks accurately ripped

No errors occurred

End of status report

Exact Audio Copy V0.99 prebeta 5 from 4. May 2009

EAC extraction logfile from 19. January 2010, 21:55

Mahler / Complete Symphonies and Orchestral Songs

Used drive  : Optiarc DVD RW AD-7241S   Adapter: 2  ID: 2

Read mode               : Secure
Utilize accurate stream : Yes
Defeat audio cache      : Yes
Make use of C2 pointers : No

Read offset correction                      : 48
Overread into Lead-In and Lead-Out          : No
Fill up missing offset samples with silence : Yes
Delete leading and trailing silent blocks   : No
Null samples used in CRC calculations       : Yes
Used interface                              : Native Win32 interface for Win NT & 2000
Gap handling                                : Appended to previous track

Used output format              : User Defined Encoder
Selected bitrate                : 128 kBit/s
Quality                         : High
Add ID3 tag                     : No
Command line compressor         : C:\Program Files (x86)\Exact Audio Copy\Flac\flac.exe
Additional command line options : -V -8 -T "artist=%a" -T "title=%t" -T "album=%g" -T "date=%y" -T "tracknumber=%n" -T "genre=%m" %s


TOC of the extracted CD

    Track |   Start  |  Length  | Start sector | End sector
   ---------------------------------------------------------
       1  |  0:00.00 | 17:38.00 |         0    |    79349  
       2  | 17:38.00 | 10:14.00 |     79350    |   125399  
       3  | 27:52.00 | 20:33.50 |    125400    |   217924  
       4  | 48:25.50 |  8:42.25 |    217925    |   257099  


Track  1

    Filename E:\EAC\Mahler\Complete Symphonies and Orchestral Songs (Disc 05) - Symphony No. 4 - i. Bedachtig. Nicht eilen.wav

    Pre-gap length  0:00:02.00

    Peak level 99.9 %
    Track quality 100.0 %
    Test CRC AF8743A3
    Copy CRC AF8743A3
    Accurately ripped (confidence 8)  [41B3B201]
    Copy OK

Track  2

    Filename E:\EAC\Mahler\Complete Symphonies and Orchestral Songs (Disc 05) - Symphony No. 4 - ii. In gemachlicher Bewegung. Ohne Hast.wav

    Peak level 79.9 %
    Track quality 99.9 %
    Test CRC E1505827
    Copy CRC E1505827
    Accurately ripped (confidence 8)  [895CBD0D]
    Copy OK

Track  3

    Filename E:\EAC\Mahler\Complete Symphonies and Orchestral Songs (Disc 05) - Symphony No. 4 - iii. Ruhevoll.wav

    Peak level 99.9 %
    Track quality 100.0 %
    Test CRC 8690A0A7
    Copy CRC 8690A0A7
    Accurately ripped (confidence 8)  [524F3FF2]
    Copy OK

Track  4

    Filename E:\EAC\Mahler\Complete Symphonies and Orchestral Songs (Disc 05) - Symphony No. 4 - iv. Sehr behaglich.wav

    Peak level 99.9 %
    Track quality 99.9 %
    Test CRC 7B2211B5
    Copy CRC 7B2211B5
    Accurately ripped (confidence 8)  [130C3D57]
    Copy OK


All tracks accurately ripped

No errors occurred

End of status report

Exact Audio Copy V0.99 prebeta 5 from 4. May 2009

EAC extraction logfile from 19. January 2010, 22:51

Mahler / Complete Symphonies and Orchestral Songs (Disc 06)

Used drive  : Optiarc DVD RW AD-7241S   Adapter: 2  ID: 2

Read mode               : Secure
Utilize accurate stream : Yes
Defeat audio cache      : Yes
Make use of C2 pointers : No

Read offset correction                      : 48
Overread into Lead-In and Lead-Out          : No
Fill up missing offset samples with silence : Yes
Delete leading and trailing silent blocks   : No
Null samples used in CRC calculations       : Yes
Used interface                              : Native Win32 interface for Win NT & 2000
Gap handling                                : Appended to previous track

Used output format              : User Defined Encoder
Selected bitrate                : 128 kBit/s
Quality                         : High
Add ID3 tag                     : No
Command line compressor         : C:\Program Files (x86)\Exact Audio Copy\Flac\flac.exe
Additional command line options : -V -8 -T "artist=%a" -T "title=%t" -T "album=%g" -T "date=%y" -T "tracknumber=%n" -T "genre=%m" %s


TOC of the extracted CD

    Track |   Start  |  Length  | Start sector | End sector
   ---------------------------------------------------------
       1  |  0:00.32 |  6:03.60 |        32    |    27316  
       2  |  6:04.17 |  2:13.15 |     27317    |    37306  
       3  |  8:17.32 |  5:18.00 |     37307    |    61156  
       4  | 13:35.32 |  2:57.00 |     61157    |    74431  
       5  | 16:32.32 |  3:03.00 |     74432    |    88156  
       6  | 19:35.32 |  3:43.00 |     88157    |   104881  
       7  | 23:18.32 |  6:47.00 |    104882    |   135406  
       8  | 30:05.32 |  3:35.00 |    135407    |   151531  
       9  | 33:40.32 |  2:34.00 |    151532    |   163081  
      10  | 36:14.32 |  8:29.00 |    163082    |   201256  
      11  | 44:43.32 |  4:37.45 |    201257    |   222076  
      12  | 49:21.02 |  2:28.30 |    222077    |   233206  
      13  | 51:49.32 |  5:49.00 |    233207    |   259381  


Track  1

    Filename E:\EAC\Mahler\Complete Symphonies and Orchestral Songs (Disc 06) [1998-FLAC-CD] - Lieder from Des Knaben Wunderhorn - i. Der Schildwache Nachtlied.wav

    Pre-gap length  0:00:02.42

    Peak level 86.8 %
    Track quality 100.0 %
    Test CRC 8DB39BE8
    Copy CRC 8DB39BE8
    Accurately ripped (confidence 7)  [D08E6807]
    Copy OK

Track  2

    Filename E:\EAC\Mahler\Complete Symphonies and Orchestral Songs (Disc 06) [1998-FLAC-CD] - Lieder from Des Knaben Wunderhorn - ii. Wer hat dies Liedlein erdacht .wav

    Peak level 95.8 %
    Track quality 100.0 %
    Test CRC C3AAC2D0
    Copy CRC C3AAC2D0
    Accurately ripped (confidence 7)  [C3AFA5B7]
    Copy OK

Track  3

    Filename E:\EAC\Mahler\Complete Symphonies and Orchestral Songs (Disc 06) [1998-FLAC-CD] - Lieder from Des Knaben Wunderhorn - iii. Der Tamboursg'sell.wav

    Peak level 90.9 %
    Track quality 100.0 %
    Test CRC 05A7D020
    Copy CRC 05A7D020
    Accurately ripped (confidence 7)  [9DD17AB2]
    Copy OK

Track  4

    Filename E:\EAC\Mahler\Complete Symphonies and Orchestral Songs (Disc 06) [1998-FLAC-CD] - Lieder from Des Knaben Wunderhorn - iv. Das irdische Leben.wav

    Peak level 95.4 %
    Track quality 99.9 %
    Test CRC 0031F65F
    Copy CRC 0031F65F
    Accurately ripped (confidence 7)  [C123FA1F]
    Copy OK

Track  5

    Filename E:\EAC\Mahler\Complete Symphonies and Orchestral Songs (Disc 06) [1998-FLAC-CD] - Lieder from Des Knaben Wunderhorn - v. Verlorne Mьh'.wav

    Peak level 78.3 %
    Track quality 100.0 %
    Test CRC BF485FCF
    Copy CRC BF485FCF
    Accurately ripped (confidence 7)  [52CEB879]
    Copy OK

Track  6

    Filename E:\EAC\Mahler\Complete Symphonies and Orchestral Songs (Disc 06) [1998-FLAC-CD] - Lieder from Des Knaben Wunderhorn - vi. Des Antonius von Padua Fischpredigt.wav

    Peak level 95.4 %
    Track quality 100.0 %
    Test CRC 6B661FAC
    Copy CRC 6B661FAC
    Accurately ripped (confidence 7)  [5A0018D0]
    Copy OK

Track  7

    Filename E:\EAC\Mahler\Complete Symphonies and Orchestral Songs (Disc 06) [1998-FLAC-CD] - Lieder from Des Knaben Wunderhorn - vii. Revelge.wav

    Peak level 95.4 %
    Track quality 100.0 %
    Test CRC 9CC57DDF
    Copy CRC 9CC57DDF
    Accurately ripped (confidence 7)  [4A9DAE2E]
    Copy OK

Track  8

    Filename E:\EAC\Mahler\Complete Symphonies and Orchestral Songs (Disc 06) [1998-FLAC-CD] - Lieder from Des Knaben Wunderhorn - viii. Rheinlegendchen.wav

    Peak level 54.9 %
    Track quality 100.0 %
    Test CRC B05857C5
    Copy CRC B05857C5
    Accurately ripped (confidence 7)  [3D6EBC16]
    Copy OK

Track  9

    Filename E:\EAC\Mahler\Complete Symphonies and Orchestral Songs (Disc 06) [1998-FLAC-CD] - Lieder from Des Knaben Wunderhorn - ix. Lob des hohen Verstandes.wav

    Peak level 88.9 %
    Track quality 100.0 %
    Test CRC A685FA8A
    Copy CRC A685FA8A
    Accurately ripped (confidence 7)  [FF4ED8CF]
    Copy OK

Track 10

    Filename E:\EAC\Mahler\Complete Symphonies and Orchestral Songs (Disc 06) [1998-FLAC-CD] - Lieder from Des Knaben Wunderhorn - x. Wo die schцnen Trompeten blasen.wav

    Peak level 65.0 %
    Track quality 100.0 %
    Test CRC CA6CB0CF
    Copy CRC CA6CB0CF
    Accurately ripped (confidence 7)  [2F2A7183]
    Copy OK

Track 11

    Filename E:\EAC\Mahler\Complete Symphonies and Orchestral Songs (Disc 06) [1998-FLAC-CD] - Lieder from Des Knaben Wunderhorn - xi. Lied des Verfolgten im Turm.wav

    Peak level 96.6 %
    Track quality 99.9 %
    Test CRC CB679E6A
    Copy CRC CB679E6A
    Accurately ripped (confidence 7)  [BDCA6F76]
    Copy OK

Track 12

    Filename E:\EAC\Mahler\Complete Symphonies and Orchestral Songs (Disc 06) [1998-FLAC-CD] - Lieder from Des Knaben Wunderhorn - xii. Trost im Unglьck.wav

    Peak level 98.5 %
    Track quality 99.9 %
    Test CRC 71EC2012
    Copy CRC 71EC2012
    Accurately ripped (confidence 7)  [CB747041]
    Copy OK

Track 13

    Filename E:\EAC\Mahler\Complete Symphonies and Orchestral Songs (Disc 06) [1998-FLAC-CD] - Lieder from Des Knaben Wunderhorn - xiii. Urlicht.wav

    Peak level 57.0 %
    Track quality 99.9 %
    Test CRC B62F5E51
    Copy CRC B62F5E51
    Accurately ripped (confidence 7)  [1FD05771]
    Copy OK


All tracks accurately ripped

No errors occurred

End of status report

Exact Audio Copy V0.99 prebeta 5 from 4. May 2009

EAC extraction logfile from 20. September 2009, 20:32

Mahler / Complete Symphonies and Orchestral Songs (Disc 07)

Used drive  : TSSTcorpCDDVDW SH-S223F   Adapter: 2  ID: 1

Read mode               : Secure
Utilize accurate stream : Yes
Defeat audio cache      : Yes
Make use of C2 pointers : No

Read offset correction                      : 6
Overread into Lead-In and Lead-Out          : No
Fill up missing offset samples with silence : Yes
Delete leading and trailing silent blocks   : No
Null samples used in CRC calculations       : Yes
Used interface                              : Native Win32 interface for Win NT & 2000
Gap handling                                : Appended to previous track

Used output format              : User Defined Encoder
Selected bitrate                : 192 kBit/s
Quality                         : High
Add ID3 tag                     : No
Command line compressor         : C:\Program Files (x86)\Exact Audio Copy\Flac\flac.exe
Additional command line options : -V -8 -T "artist=%a" -T "title=%t" -T "album=%g" -T "date=%y" -T "tracknumber=%n" -T "genre=%m" %s


TOC of the extracted CD

    Track |   Start  |  Length  | Start sector | End sector
   ---------------------------------------------------------
       1  |  0:00.00 | 14:35.00 |         0    |    65624  
       2  | 14:35.00 | 15:05.00 |     65625    |   133499  
       3  | 29:40.00 | 19:05.00 |    133500    |   219374  
       4  | 48:45.00 | 11:16.00 |    219375    |   270074  
       5  | 60:01.00 | 15:02.00 |    270075    |   337724  


Track  1

    Filename C:\EAC\Mahler\Complete Symphonies and Orchestral Songs (Disc 07) - Symphony No. 5 - i. Part I - Trauermarsch. In gemessenem Schritt. Streng. Wie ein Kondukt.wav

    Pre-gap length  0:00:02.00

    Peak level 99.9 %
    Track quality 99.9 %
    Test CRC 5D2F765C
    Copy CRC 5D2F765C
    Accurately ripped (confidence 6)  [106146F5]
    Copy OK

Track  2

    Filename C:\EAC\Mahler\Complete Symphonies and Orchestral Songs (Disc 07) - Symphony No. 5 - ii. Part I - Sturmisch bewegt. Mit grosster Vehemenz.wav

    Peak level 99.9 %
    Track quality 100.0 %
    Test CRC 26E6FF70
    Copy CRC 26E6FF70
    Accurately ripped (confidence 6)  [136BA45D]
    Copy OK

Track  3

    Filename C:\EAC\Mahler\Complete Symphonies and Orchestral Songs (Disc 07) - Symphony No. 5 - iii. Part II - Scherzo. Kraftig, nicht zu schnell.wav

    Peak level 99.9 %
    Track quality 100.0 %
    Test CRC A0BA206F
    Copy CRC A0BA206F
    Accurately ripped (confidence 6)  [BB9CB2A6]
    Copy OK

Track  4

    Filename C:\EAC\Mahler\Complete Symphonies and Orchestral Songs (Disc 07) - Symphony No. 5 - iv. Part III - Adagietto. Sehr langsam.wav

    Peak level 99.9 %
    Track quality 100.0 %
    Test CRC 5718A7D8
    Copy CRC 5718A7D8
    Accurately ripped (confidence 5)  [8D1E5451]
    Copy OK

Track  5

    Filename C:\EAC\Mahler\Complete Symphonies and Orchestral Songs (Disc 07) - Symphony No. 5 - v. Part III - Rondo-Finale. Allegro - Allegro giocoso. Frisch.wav

    Peak level 99.9 %
    Track quality 100.0 %
    Test CRC 20EC0862
    Copy CRC 20EC0862
    Accurately ripped (confidence 6)  [7AC4B150]
    Copy OK


All tracks accurately ripped

No errors occurred

End of status report

Exact Audio Copy V0.99 prebeta 5 from 4. May 2009

EAC extraction logfile from 20. September 2009, 19:00

Mahler / Complete Symphonies and Orchestral Songs (Disc 08)

Used drive  : TSSTcorpCDDVDW SH-S223F   Adapter: 2  ID: 1

Read mode               : Secure
Utilize accurate stream : Yes
Defeat audio cache      : Yes
Make use of C2 pointers : No

Read offset correction                      : 6
Overread into Lead-In and Lead-Out          : No
Fill up missing offset samples with silence : Yes
Delete leading and trailing silent blocks   : No
Null samples used in CRC calculations       : Yes
Used interface                              : Native Win32 interface for Win NT & 2000
Gap handling                                : Appended to previous track

Used output format              : User Defined Encoder
Selected bitrate                : 192 kBit/s
Quality                         : High
Add ID3 tag                     : No
Command line compressor         : C:\Program Files (x86)\Exact Audio Copy\Flac\flac.exe
Additional command line options : -V -8 -T "artist=%a" -T "title=%t" -T "album=%g" -T "date=%y" -T "tracknumber=%n" -T "genre=%m" %s


TOC of the extracted CD

    Track |   Start  |  Length  | Start sector | End sector
   ---------------------------------------------------------
       1  |  0:00.00 | 23:17.00 |         0    |   104774  
       2  | 23:17.00 | 14:16.00 |    104775    |   168974  
       3  | 37:33.00 | 16:19.00 |    168975    |   242399  


Track  1

    Filename C:\EAC\Mahler\Complete Symphonies and Orchestral Songs (Disc 08) - Symphony No. 6 - i. Allegro energico, ma non troppo. Heftig, aber markig.wav

    Pre-gap length  0:00:02.00

    Peak level 99.9 %
    Track quality 99.9 %
    Test CRC 8443B750
    Copy CRC 8443B750
    Accurately ripped (confidence 6)  [061DE179]
    Copy OK

Track  2

    Filename C:\EAC\Mahler\Complete Symphonies and Orchestral Songs (Disc 08) - Symphony No. 6 - ii. Scherzo. Wuchtig.wav

    Peak level 99.9 %
    Track quality 100.0 %
    Test CRC C8533525
    Copy CRC C8533525
    Accurately ripped (confidence 6)  [7C62754C]
    Copy OK

Track  3

    Filename C:\EAC\Mahler\Complete Symphonies and Orchestral Songs (Disc 08) - Symphony No. 6 - iii. Andante moderato.wav

    Peak level 99.9 %
    Track quality 100.0 %
    Test CRC 9BF9E484
    Copy CRC 9BF9E484
    Accurately ripped (confidence 6)  [C0361A87]
    Copy OK


All tracks accurately ripped

No errors occurred

End of status report

Exact Audio Copy V0.99 prebeta 5 from 4. May 2009

EAC extraction logfile from 20. September 2009, 23:41

Mahler / Complete Symphonies and Orchestral Songs (Disc 09)

Used drive  : TSSTcorpCDDVDW SH-S223F   Adapter: 2  ID: 1

Read mode               : Secure
Utilize accurate stream : Yes
Defeat audio cache      : Yes
Make use of C2 pointers : No

Read offset correction                      : 6
Overread into Lead-In and Lead-Out          : No
Fill up missing offset samples with silence : Yes
Delete leading and trailing silent blocks   : No
Null samples used in CRC calculations       : Yes
Used interface                              : Native Win32 interface for Win NT & 2000
Gap handling                                : Appended to previous track

Used output format              : User Defined Encoder
Selected bitrate                : 192 kBit/s
Quality                         : High
Add ID3 tag                     : No
Command line compressor         : C:\Program Files (x86)\Exact Audio Copy\Flac\flac.exe
Additional command line options : -V -8 -T "artist=%a" -T "title=%t" -T "album=%g" -T "date=%y" -T "tracknumber=%n" -T "genre=%m" %s


TOC of the extracted CD

    Track |   Start  |  Length  | Start sector | End sector
   ---------------------------------------------------------
       1  |  0:00.00 | 33:29.00 |         0    |   150674  
       2  | 33:29.00 |  5:59.00 |    150675    |   177599  
       3  | 39:28.00 |  5:11.00 |    177600    |   200924  
       4  | 44:39.00 |  6:05.00 |    200925    |   228299  
       5  | 50:44.00 |  3:30.00 |    228300    |   244049  
       6  | 54:14.00 |  7:20.00 |    244050    |   277049  


Track  1

    Filename C:\EAC\Mahler\Complete Symphonies and Orchestral Songs (Disc 09) - Symphony No. 6 - iv. Finale. Allegro moderato - Allegro energico.wav

    Pre-gap length  0:00:02.00

    Peak level 99.9 %
    Track quality 100.0 %
    Test CRC C7F91D57
    Copy CRC C7F91D57
    Accurately ripped (confidence 5)  [8BA0AEDB]
    Copy OK

Track  2

    Filename C:\EAC\Mahler\Complete Symphonies and Orchestral Songs (Disc 09) - Songs on the Death of Children - i. Nun will die Sonn' so hell aufghen.wav

    Pre-gap length  0:00:19.00

    Peak level 42.7 %
    Track quality 100.0 %
    Test CRC F90CABC2
    Copy CRC F90CABC2
    Accurately ripped (confidence 4)  [E9FC8991]
    Copy OK

Track  3

    Filename C:\EAC\Mahler\Complete Symphonies and Orchestral Songs (Disc 09) - Songs on the Death of Children - ii. Nun seh' ich wohl, warum so dunkle Flammen.wav

    Peak level 90.2 %
    Track quality 100.0 %
    Test CRC A4497B86
    Copy CRC A4497B86
    Accurately ripped (confidence 4)  [6F4A6489]
    Copy OK

Track  4

    Filename C:\EAC\Mahler\Complete Symphonies and Orchestral Songs (Disc 09) - Songs on the Death of Children - iii. Wenn dein Mutterlein.wav

    Peak level 64.6 %
    Track quality 100.0 %
    Test CRC 39ED3273
    Copy CRC 39ED3273
    Accurately ripped (confidence 4)  [02C5C95B]
    Copy OK

Track  5

    Filename C:\EAC\Mahler\Complete Symphonies and Orchestral Songs (Disc 09) - Songs on the Death of Children - iv. Oft denk' ich, sie sind nur ausgegangen.wav

    Peak level 55.1 %
    Track quality 100.0 %
    Test CRC 0C8DE3B5
    Copy CRC 0C8DE3B5
    Accurately ripped (confidence 4)  [FEDAC977]
    Copy OK

Track  6

    Filename C:\EAC\Mahler\Complete Symphonies and Orchestral Songs (Disc 09) - Songs on the Death of Children - v. In diesem Wetter, in diesem Braus.wav

    Peak level 99.9 %
    Track quality 99.9 %
    Test CRC 620BB1A9
    Copy CRC 620BB1A9
    Accurately ripped (confidence 4)  [44C9550F]
    Copy OK


All tracks accurately ripped

No errors occurred

End of status report

Exact Audio Copy V0.99 prebeta 5 from 4. May 2009

EAC extraction logfile from 20. September 2009, 18:36

Mahler / Complete Symphonies and Orchestral Songs (Disc 10)

Used drive  : TSSTcorpCDDVDW SH-S223F   Adapter: 2  ID: 1

Read mode               : Secure
Utilize accurate stream : Yes
Defeat audio cache      : Yes
Make use of C2 pointers : No

Read offset correction                      : 6
Overread into Lead-In and Lead-Out          : No
Fill up missing offset samples with silence : Yes
Delete leading and trailing silent blocks   : No
Null samples used in CRC calculations       : Yes
Used interface                              : Native Win32 interface for Win NT & 2000
Gap handling                                : Appended to previous track

Used output format              : User Defined Encoder
Selected bitrate                : 192 kBit/s
Quality                         : High
Add ID3 tag                     : No
Command line compressor         : C:\Program Files (x86)\Exact Audio Copy\Flac\flac.exe
Additional command line options : -V -8 -T "artist=%a" -T "title=%t" -T "album=%g" -T "date=%y" -T "tracknumber=%n" -T "genre=%m" %s


TOC of the extracted CD

    Track |   Start  |  Length  | Start sector | End sector
   ---------------------------------------------------------
       1  |  0:00.00 | 21:38.00 |         0    |    97349  
       2  | 21:38.00 | 17:08.00 |     97350    |   174449  
       3  | 38:46.00 | 10:32.00 |    174450    |   221849  
       4  | 49:18.00 | 14:47.00 |    221850    |   288374  


Track  1

    Filename C:\EAC\Mahler\Complete Symphonies and Orchestral Songs (Disc 10) - Symphony No. 7 - i. Langsam (Adagio) - Allegro risoluto, ma non troppo.wav

    Pre-gap length  0:00:02.00

    Peak level 99.9 %
    Track quality 99.9 %
    Test CRC 2BCDE9C9
    Copy CRC 2BCDE9C9
    Accurately ripped (confidence 7)  [C8952D22]
    Copy OK

Track  2

    Filename C:\EAC\Mahler\Complete Symphonies and Orchestral Songs (Disc 10) - Symphony No. 7 - ii. Nachtmusik. Allegro moderato.wav

    Peak level 99.9 %
    Track quality 100.0 %
    Test CRC 16E362AC
    Copy CRC 16E362AC
    Accurately ripped (confidence 7)  [A617E9C9]
    Copy OK

Track  3

    Filename C:\EAC\Mahler\Complete Symphonies and Orchestral Songs (Disc 10) - Symphony No. 7 - iii. Scherzo. Schattenhaft.wav

    Peak level 99.9 %
    Track quality 100.0 %
    Test CRC 80B1F603
    Copy CRC 80B1F603
    Accurately ripped (confidence 7)  [B58728A9]
    Copy OK

Track  4

    Filename C:\EAC\Mahler\Complete Symphonies and Orchestral Songs (Disc 10) - Symphony No. 7 - iv. Andante amoroso.wav

    Peak level 99.9 %
    Track quality 100.0 %
    Test CRC 3233F82A
    Copy CRC 3233F82A
    Accurately ripped (confidence 7)  [FC888CA5]
    Copy OK


All tracks accurately ripped

No errors occurred

End of status report

Exact Audio Copy V0.99 prebeta 5 from 4. May 2009

EAC extraction logfile from 21. September 2009, 3:15

Mahler / Complete Symphonies and Orchestral Songs (Disc 11)

Used drive  : TSSTcorpCDDVDW SH-S223F   Adapter: 2  ID: 1

Read mode               : Secure
Utilize accurate stream : Yes
Defeat audio cache      : Yes
Make use of C2 pointers : No

Read offset correction                      : 6
Overread into Lead-In and Lead-Out          : No
Fill up missing offset samples with silence : Yes
Delete leading and trailing silent blocks   : No
Null samples used in CRC calculations       : Yes
Used interface                              : Native Win32 interface for Win NT & 2000
Gap handling                                : Appended to previous track

Used output format              : User Defined Encoder
Selected bitrate                : 192 kBit/s
Quality                         : High
Add ID3 tag                     : No
Command line compressor         : C:\Program Files (x86)\Exact Audio Copy\Flac\flac.exe
Additional command line options : -V -8 -T "artist=%a" -T "title=%t" -T "album=%g" -T "date=%y" -T "tracknumber=%n" -T "genre=%m" %s


TOC of the extracted CD

    Track |   Start  |  Length  | Start sector | End sector
   ---------------------------------------------------------
       1  |  0:00.32 | 18:40.00 |        32    |    84031  
       2  | 18:40.32 |  2:48.00 |     84032    |    96631  
       3  | 21:28.32 |  1:30.00 |     96632    |   103381  
       4  | 22:58.32 |  3:00.00 |    103382    |   116881  
       5  | 25:58.32 |  7:22.00 |    116882    |   150031  
       6  | 33:20.32 |  7:48.00 |    150032    |   185131  


Track  1

    Filename C:\EAC\Mahler\Complete Symphonies and Orchestral Songs (Disc 11) - Symphony No. 7 - v. Rondo-Finale. Tempo I (Allegro ordinario).wav

    Pre-gap length  0:00:02.32

    Peak level 99.9 %
    Track quality 100.0 %
    Test CRC 1C276B1E
    Copy CRC 1C276B1E
    Accurately ripped (confidence 7)  [66E54C45]
    Copy OK

Track  2

    Filename C:\EAC\Mahler\Complete Symphonies and Orchestral Songs (Disc 11) - Ruckert Lieder - i. Liebst du um Schonheit.wav

    Pre-gap length  0:00:14.00

    Peak level 48.8 %
    Track quality 99.9 %
    Test CRC 3E016B8F
    Copy CRC 3E016B8F
    Accurately ripped (confidence 6)  [B122526A]
    Copy OK

Track  3

    Filename C:\EAC\Mahler\Complete Symphonies and Orchestral Songs (Disc 11) - Ruckert Lieder - ii. Blicke mir nicht in die Lieder.wav

    Peak level 33.6 %
    Track quality 99.8 %
    Test CRC C7369324
    Copy CRC C7369324
    Accurately ripped (confidence 6)  [E8E1DF82]
    Copy OK

Track  4

    Filename C:\EAC\Mahler\Complete Symphonies and Orchestral Songs (Disc 11) - Ruckert Lieder - iii. Ich atmet' einen linden Duft.wav

    Peak level 36.7 %
    Track quality 99.9 %
    Test CRC 390E408D
    Copy CRC 390E408D
    Accurately ripped (confidence 6)  [23D27AEF]
    Copy OK

Track  5

    Filename C:\EAC\Mahler\Complete Symphonies and Orchestral Songs (Disc 11) - Ruckert Lieder - iv. Um Mitternacht.wav

    Peak level 99.9 %
    Track quality 100.0 %
    Test CRC A5A5F1D1
    Copy CRC A5A5F1D1
    Accurately ripped (confidence 6)  [B47369D9]
    Copy OK

Track  6

    Filename C:\EAC\Mahler\Complete Symphonies and Orchestral Songs (Disc 11) - Ruckert Lieder - v. Ich bin der Welt abhanden gekommen.wav

    Peak level 38.8 %
    Track quality 100.0 %
    Test CRC 3ACE6458
    Copy CRC 3ACE6458
    Accurately ripped (confidence 6)  [5634C289]
    Copy OK


All tracks accurately ripped

No errors occurred

End of status report

Exact Audio Copy V0.99 prebeta 5 from 4. May 2009

EAC extraction logfile from 22. September 2009, 19:18

Mahler / Complete Symphonies and Orchestral Songs (Disc 12)

Used drive  : TSSTcorpCDDVDW SH-S223F   Adapter: 2  ID: 1

Read mode               : Secure
Utilize accurate stream : Yes
Defeat audio cache      : Yes
Make use of C2 pointers : No

Read offset correction                      : 6
Overread into Lead-In and Lead-Out          : No
Fill up missing offset samples with silence : Yes
Delete leading and trailing silent blocks   : No
Null samples used in CRC calculations       : Yes
Used interface                              : Native Win32 interface for Win NT & 2000
Gap handling                                : Appended to previous track

Used output format              : User Defined Encoder
Selected bitrate                : 192 kBit/s
Quality                         : High
Add ID3 tag                     : No
Command line compressor         : C:\Program Files (x86)\Exact Audio Copy\Flac\flac.exe
Additional command line options : -V -8 -T "artist=%a" -T "title=%t" -T "album=%g" -T "date=%y" -T "tracknumber=%n" -T "genre=%m" %s


TOC of the extracted CD

    Track |   Start  |  Length  | Start sector | End sector
   ---------------------------------------------------------
       1  |  0:00.00 | 26:13.00 |         0    |   117974  
       2  | 26:13.00 |  1:31.00 |    117975    |   124799  
       3  | 27:44.00 |  3:16.25 |    124800    |   139524  
       4  | 31:00.25 |  2:44.20 |    139525    |   151844  
       5  | 33:44.45 |  1:13.60 |    151845    |   157379  
       6  | 34:58.30 |  3:15.15 |    157380    |   172019  
       7  | 38:13.45 |  4:23.45 |    172020    |   191789  
       8  | 42:37.15 |  4:27.28 |    191790    |   211842  
       9  | 47:04.43 |  3:22.32 |    211843    |   227024  


Track  1

    Filename C:\EAC\Mahler\Complete Symphonies and Orchestral Songs (Disc 12) - Symphony No. 10 - Andante - Adagio.wav

    Pre-gap length  0:00:02.00

    Peak level 99.9 %
    Track quality 99.9 %
    Test CRC F935D337
    Copy CRC F935D337
    Accurately ripped (confidence 3)  [4A119AB3]
    Copy OK

Track  2

    Filename C:\EAC\Mahler\Complete Symphonies and Orchestral Songs (Disc 12) - Symphony No. 8, Part I, Hymnus 'Veni, creator spiritus' - 'Veni, creator spiritus'.wav

    Pre-gap length  0:00:10.00

    Peak level 99.9 %
    Track quality 99.8 %
    Test CRC 679FC137
    Copy CRC 679FC137
    Accurately ripped (confidence 3)  [8ACAE85B]
    Copy OK

Track  3

    Filename C:\EAC\Mahler\Complete Symphonies and Orchestral Songs (Disc 12) - Symphony No. 8, Part I, Hymnus 'Veni, creator spiritus' - 'Imple superna gratia'.wav

    Peak level 99.9 %
    Track quality 100.0 %
    Test CRC 0C87AA6E
    Copy CRC 0C87AA6E
    Accurately ripped (confidence 3)  [5C256C95]
    Copy OK

Track  4

    Filename C:\EAC\Mahler\Complete Symphonies and Orchestral Songs (Disc 12) - Symphony No. 8, Part I, Hymnus 'Veni, creator spiritus' - 'Infirma nostri corporis'.wav

    Peak level 99.9 %
    Track quality 100.0 %
    Test CRC 9D64BF56
    Copy CRC 9D64BF56
    Accurately ripped (confidence 3)  [D5A16A2A]
    Copy OK

Track  5

    Filename C:\EAC\Mahler\Complete Symphonies and Orchestral Songs (Disc 12) - Symphony No. 8, Part I, Hymnus 'Veni, creator spiritus' - Tempo I..wav

    Peak level 70.6 %
    Track quality 100.0 %
    Test CRC 3A57A90A
    Copy CRC 3A57A90A
    Accurately ripped (confidence 3)  [4949E834]
    Copy OK

Track  6

    Filename C:\EAC\Mahler\Complete Symphonies and Orchestral Songs (Disc 12) - Symphony No. 8, Part I, Hymnus 'Veni, creator spiritus' - 'Infirma nostri corporis'.wav

    Peak level 78.2 %
    Track quality 100.0 %
    Test CRC 39AB1698
    Copy CRC 39AB1698
    Accurately ripped (confidence 3)  [3406A5BC]
    Copy OK

Track  7

    Filename C:\EAC\Mahler\Complete Symphonies and Orchestral Songs (Disc 12) - Symphony No. 8, Part I, Hymnus 'Veni, creator spiritus' - 'Accende lumen sensibus'.wav

    Peak level 99.9 %
    Track quality 100.0 %
    Test CRC F0781C93
    Copy CRC F0781C93
    Accurately ripped (confidence 3)  [5897CE13]
    Copy OK

Track  8

    Filename C:\EAC\Mahler\Complete Symphonies and Orchestral Songs (Disc 12) - Symphony No. 8, Part I, Hymnus 'Veni, creator spiritus' - 'Veni, creator spiritus'.wav

    Peak level 99.9 %
    Track quality 100.0 %
    Test CRC 801CBC90
    Copy CRC 801CBC90
    Accurately ripped (confidence 3)  [B2B10681]
    Copy OK

Track  9

    Filename C:\EAC\Mahler\Complete Symphonies and Orchestral Songs (Disc 12) - Symphony No. 8, Part I, Hymnus 'Veni, creator spiritus' - 'Gloria sit Patri Domino'.wav

    Peak level 99.9 %
    Track quality 100.0 %
    Test CRC 73C2214E
    Copy CRC 73C2214E
    Accurately ripped (confidence 3)  [CB27E209]
    Copy OK


All tracks accurately ripped

No errors occurred

End of status report

Exact Audio Copy V0.99 prebeta 5 from 4. May 2009

EAC extraction logfile from 21. September 2009, 21:38

Mahler / Complete Symphonies and Orchestral Songs (Disc 13)

Used drive  : TSSTcorpCDDVDW SH-S223F   Adapter: 2  ID: 1

Read mode               : Secure
Utilize accurate stream : Yes
Defeat audio cache      : Yes
Make use of C2 pointers : No

Read offset correction                      : 6
Overread into Lead-In and Lead-Out          : No
Fill up missing offset samples with silence : Yes
Delete leading and trailing silent blocks   : No
Null samples used in CRC calculations       : Yes
Used interface                              : Native Win32 interface for Win NT & 2000
Gap handling                                : Appended to previous track

Used output format              : User Defined Encoder
Selected bitrate                : 192 kBit/s
Quality                         : High
Add ID3 tag                     : No
Command line compressor         : C:\Program Files (x86)\Exact Audio Copy\Flac\flac.exe
Additional command line options : -V -8 -T "artist=%a" -T "title=%t" -T "album=%g" -T "date=%y" -T "tracknumber=%n" -T "genre=%m" %s


TOC of the extracted CD

    Track |   Start  |  Length  | Start sector | End sector
   ---------------------------------------------------------
       1  |  0:00.00 |  6:26.23 |         0    |    28972  
       2  |  6:26.23 |  3:05.25 |     28973    |    42872  
       3  |  9:31.48 |  4:31.58 |     42873    |    63255  
       4  | 14:03.31 |  1:35.50 |     63256    |    70430  
       5  | 15:39.06 |  4:29.62 |     70431    |    90667  
       6  | 20:08.68 |  1:06.03 |     90668    |    95620  
       7  | 21:14.71 |  1:49.55 |     95621    |   103850  
       8  | 23:04.51 |  2:22.65 |    103851    |   114565  
       9  | 25:27.41 |  1:22.10 |    114566    |   120725  
      10  | 26:49.51 |  4:24.20 |    120726    |   140545  
      11  | 31:13.71 |  3:55.50 |    140546    |   158220  
      12  | 35:09.46 |  4:50.37 |    158221    |   180007  
      13  | 40:00.08 |  1:13.18 |    180008    |   185500  
      14  | 41:13.26 |  3:56.70 |    185501    |   203270  
      15  | 45:10.21 |  1:22.60 |    203271    |   209480  
      16  | 46:33.06 |  6:01.02 |    209481    |   236557  
      17  | 52:34.08 |  6:27.70 |    236558    |   265652  


Track  1

    Filename C:\EAC\Mahler\Complete Symphonies and Orchestral Songs (Disc 13) - Symphony No. 8, Part II, Final Scene from Goethe's 'Faust' - Poco adagio.wav

    Pre-gap length  0:00:02.00

    Peak level 96.5 %
    Track quality 100.0 %
    Test CRC F1EF8421
    Copy CRC F1EF8421
    Accurately ripped (confidence 4)  [7492AB29]
    Copy OK

Track  2

    Filename C:\EAC\Mahler\Complete Symphonies and Orchestral Songs (Disc 13) - Symphony No. 8, Part II, Final Scene from Goethe's 'Faust' - Piu mosso.wav

    Peak level 99.9 %
    Track quality 100.0 %
    Test CRC 9E60E417
    Copy CRC 9E60E417
    Accurately ripped (confidence 4)  [632AA2CC]
    Copy OK

Track  3

    Filename C:\EAC\Mahler\Complete Symphonies and Orchestral Songs (Disc 13) - Symphony No. 8, Part II, Final Scene from Goethe's 'Faust' - 'Waldung, sie schwankt heran'.wav

    Peak level 25.9 %
    Track quality 100.0 %
    Test CRC FD2BD5F2
    Copy CRC FD2BD5F2
    Accurately ripped (confidence 4)  [989B4F0D]
    Copy OK

Track  4

    Filename C:\EAC\Mahler\Complete Symphonies and Orchestral Songs (Disc 13) - Symphony No. 8, Part II, Final Scene from Goethe's 'Faust' - 'Ewiger Wonnebrand'.wav

    Peak level 99.9 %
    Track quality 100.0 %
    Test CRC 53B343AB
    Copy CRC 53B343AB
    Accurately ripped (confidence 4)  [DDB39819]
    Copy OK

Track  5

    Filename C:\EAC\Mahler\Complete Symphonies and Orchestral Songs (Disc 13) - Symphony No. 8, Part II, Final Scene from Goethe's 'Faust' - 'Wie Felsenabgrund mir zu Fusen'.wav

    Peak level 99.9 %
    Track quality 100.0 %
    Test CRC B611A625
    Copy CRC B611A625
    Accurately ripped (confidence 4)  [CB1D8FE3]
    Copy OK

Track  6

    Filename C:\EAC\Mahler\Complete Symphonies and Orchestral Songs (Disc 13) - Symphony No. 8, Part II, Final Scene from Goethe's 'Faust' - 'Gerettet ist das edle Glied der Geisterwelt vom Bosen'.wav

    Peak level 94.7 %
    Track quality 100.0 %
    Test CRC 9AB08D93
    Copy CRC 9AB08D93
    Accurately ripped (confidence 4)  [FB1085E5]
    Copy OK

Track  7

    Filename C:\EAC\Mahler\Complete Symphonies and Orchestral Songs (Disc 13) - Symphony No. 8, Part II, Final Scene from Goethe's 'Faust' - 'Jene Rosen aus den Handen'.wav

    Peak level 98.8 %
    Track quality 100.0 %
    Test CRC C9BFA357
    Copy CRC C9BFA357
    Accurately ripped (confidence 4)  [6929527D]
    Copy OK

Track  8

    Filename C:\EAC\Mahler\Complete Symphonies and Orchestral Songs (Disc 13) - Symphony No. 8, Part II, Final Scene from Goethe's 'Faust' - 'Uns bleibt ein Erdenrest'.wav

    Peak level 51.7 %
    Track quality 100.0 %
    Test CRC 261CEFC0
    Copy CRC 261CEFC0
    Accurately ripped (confidence 4)  [BE58CF30]
    Copy OK

Track  9

    Filename C:\EAC\Mahler\Complete Symphonies and Orchestral Songs (Disc 13) - Symphony No. 8, Part II, Final Scene from Goethe's 'Faust' - Im anfang noch etwas gehalten.wav

    Peak level 78.2 %
    Track quality 100.0 %
    Test CRC 2FFC1024
    Copy CRC 2FFC1024
    Accurately ripped (confidence 4)  [854DDAC7]
    Copy OK

Track 10

    Filename C:\EAC\Mahler\Complete Symphonies and Orchestral Songs (Disc 13) - Symphony No. 8, Part II, Final Scene from Goethe's 'Faust' - 'Hochste Herrscherin der Welt!'.wav

    Peak level 89.4 %
    Track quality 100.0 %
    Test CRC E92BBF0F
    Copy CRC E92BBF0F
    Accurately ripped (confidence 4)  [66EA787A]
    Copy OK

Track 11

    Filename C:\EAC\Mahler\Complete Symphonies and Orchestral Songs (Disc 13) - Symphony No. 8, Part II, Final Scene from Goethe's 'Faust' - 'Dir, der Unberuhrbaren'.wav

    Peak level 98.6 %
    Track quality 100.0 %
    Test CRC 0DB1FCC0
    Copy CRC 0DB1FCC0
    Accurately ripped (confidence 4)  [735BC00B]
    Copy OK

Track 12

    Filename C:\EAC\Mahler\Complete Symphonies and Orchestral Songs (Disc 13) - Symphony No. 8, Part II, Final Scene from Goethe's 'Faust' - 'Bei der Liebe, die den Fusen'.wav

    Peak level 99.1 %
    Track quality 100.0 %
    Test CRC 0966A882
    Copy CRC 0966A882
    Accurately ripped (confidence 4)  [F9575A53]
    Copy OK

Track 13

    Filename C:\EAC\Mahler\Complete Symphonies and Orchestral Songs (Disc 13) - Symphony No. 8, Part II, Final Scene from Goethe's 'Faust' - 'Neige, neige, du Ohnegleiche'.wav

    Peak level 89.9 %
    Track quality 100.0 %
    Test CRC 395AE607
    Copy CRC 395AE607
    Accurately ripped (confidence 4)  [3C43CB4C]
    Copy OK

Track 14

    Filename C:\EAC\Mahler\Complete Symphonies and Orchestral Songs (Disc 13) - Symphony No. 8, Part II, Final Scene from Goethe's 'Faust' - 'Er uberwachst uns schon'.wav

    Peak level 87.4 %
    Track quality 100.0 %
    Test CRC A9FAA04E
    Copy CRC A9FAA04E
    Accurately ripped (confidence 4)  [31227426]
    Copy OK

Track 15

    Filename C:\EAC\Mahler\Complete Symphonies and Orchestral Songs (Disc 13) - Symphony No. 8, Part II, Final Scene from Goethe's 'Faust' - 'Komm! hebe dich zu hohern Spharen!'.wav

    Peak level 62.6 %
    Track quality 100.0 %
    Test CRC D82EE1BC
    Copy CRC D82EE1BC
    Accurately ripped (confidence 4)  [40F8FB1A]
    Copy OK

Track 16

    Filename C:\EAC\Mahler\Complete Symphonies and Orchestral Songs (Disc 13) - Symphony No. 8, Part II, Final Scene from Goethe's 'Faust' - 'Blicket auf zum Retterblick, alle reuig Zarten'.wav

    Peak level 96.6 %
    Track quality 100.0 %
    Test CRC DF760E65
    Copy CRC DF760E65
    Accurately ripped (confidence 4)  [157A088E]
    Copy OK

Track 17

    Filename C:\EAC\Mahler\Complete Symphonies and Orchestral Songs (Disc 13) - Symphony No. 8, Part II, Final Scene from Goethe's 'Faust' - 'Alles Vergangliche ist nur ein Gleichnis.wav

    Peak level 99.9 %
    Track quality 100.0 %
    Test CRC F34B49B8
    Copy CRC F34B49B8
    Accurately ripped (confidence 4)  [B670D2EC]
    Copy OK


All tracks accurately ripped

No errors occurred

End of status report

Exact Audio Copy V0.99 prebeta 5 from 4. May 2009

EAC extraction logfile from 22. September 2009, 21:52

Mahler / Complete Symphonies and Orchestral Songs (Disc 14)

Used drive  : TSSTcorpCDDVDW SH-S223F   Adapter: 2  ID: 1

Read mode               : Secure
Utilize accurate stream : Yes
Defeat audio cache      : Yes
Make use of C2 pointers : No

Read offset correction                      : 6
Overread into Lead-In and Lead-Out          : No
Fill up missing offset samples with silence : Yes
Delete leading and trailing silent blocks   : No
Null samples used in CRC calculations       : Yes
Used interface                              : Native Win32 interface for Win NT & 2000
Gap handling                                : Appended to previous track

Used output format              : User Defined Encoder
Selected bitrate                : 192 kBit/s
Quality                         : High
Add ID3 tag                     : No
Command line compressor         : C:\Program Files (x86)\Exact Audio Copy\Flac\flac.exe
Additional command line options : -V -8 -T "artist=%a" -T "title=%t" -T "album=%g" -T "date=%y" -T "tracknumber=%n" -T "genre=%m" %s


TOC of the extracted CD

    Track |   Start  |  Length  | Start sector | End sector
   ---------------------------------------------------------
       1  |  0:00.00 |  8:31.13 |         0    |    38337  
       2  |  8:31.13 | 11:22.00 |     38338    |    89487  
       3  | 19:53.13 |  3:11.00 |     89488    |   103812  
       4  | 23:04.13 |  8:10.00 |    103813    |   140562  
       5  | 31:14.13 |  4:39.00 |    140563    |   161487  
       6  | 35:53.13 | 31:02.37 |    161488    |   301174  


Track  1

    Filename C:\EAC\Mahler\Complete Symphonies and Orchestral Songs (Disc 14) - The Song of the Earth - i. Das Trinklied vom Jammer der Erde.wav

    Pre-gap length  0:00:02.00

    Peak level 99.9 %
    Track quality 100.0 %
    Test CRC 00A885E8
    Copy CRC 00A885E8
    Accurately ripped (confidence 4)  [56C14CCF]
    Copy OK

Track  2

    Filename C:\EAC\Mahler\Complete Symphonies and Orchestral Songs (Disc 14) - The Song of the Earth - ii. Der Einsame im Herbst.wav

    Peak level 90.0 %
    Track quality 100.0 %
    Test CRC 6E4A9A29
    Copy CRC 6E4A9A29
    Accurately ripped (confidence 4)  [4FBDA52E]
    Copy OK

Track  3

    Filename C:\EAC\Mahler\Complete Symphonies and Orchestral Songs (Disc 14) - The Song of the Earth - iii. Von der Jugend.wav

    Peak level 72.9 %
    Track quality 100.0 %
    Test CRC D4054512
    Copy CRC D4054512
    Accurately ripped (confidence 4)  [593E80B5]
    Copy OK

Track  4

    Filename C:\EAC\Mahler\Complete Symphonies and Orchestral Songs (Disc 14) - The Song of the Earth - iv. Von der Schonheit.wav

    Peak level 99.9 %
    Track quality 100.0 %
    Test CRC 7A1BBFE9
    Copy CRC 7A1BBFE9
    Accurately ripped (confidence 4)  [3FA780E6]
    Copy OK

Track  5

    Filename C:\EAC\Mahler\Complete Symphonies and Orchestral Songs (Disc 14) - The Song of the Earth - v. Der Trunkene im Fruhling.wav

    Peak level 94.5 %
    Track quality 100.0 %
    Test CRC 0E38C537
    Copy CRC 0E38C537
    Accurately ripped (confidence 4)  [DF6CFAA0]
    Copy OK

Track  6

    Filename C:\EAC\Mahler\Complete Symphonies and Orchestral Songs (Disc 14) - The Song of the Earth - vi. Der Abscheid.wav

    Peak level 89.9 %
    Track quality 100.0 %
    Test CRC 46C26B1C
    Copy CRC 46C26B1C
    Accurately ripped (confidence 4)  [4808A996]
    Copy OK


All tracks accurately ripped

No errors occurred

End of status report

Exact Audio Copy V0.99 prebeta 5 from 4. May 2009

EAC extraction logfile from 22. September 2009, 22:55

Mahler / Complete Symphonies and Orchestral Songs (Disc 15)

Used drive  : TSSTcorpCDDVDW SH-S223F   Adapter: 2  ID: 1

Read mode               : Secure
Utilize accurate stream : Yes
Defeat audio cache      : Yes
Make use of C2 pointers : No

Read offset correction                      : 6
Overread into Lead-In and Lead-Out          : No
Fill up missing offset samples with silence : Yes
Delete leading and trailing silent blocks   : No
Null samples used in CRC calculations       : Yes
Used interface                              : Native Win32 interface for Win NT & 2000
Gap handling                                : Appended to previous track

Used output format              : User Defined Encoder
Selected bitrate                : 192 kBit/s
Quality                         : High
Add ID3 tag                     : No
Command line compressor         : C:\Program Files (x86)\Exact Audio Copy\Flac\flac.exe
Additional command line options : -V -8 -T "artist=%a" -T "title=%t" -T "album=%g" -T "date=%y" -T "tracknumber=%n" -T "genre=%m" %s


TOC of the extracted CD

    Track |   Start  |  Length  | Start sector | End sector
   ---------------------------------------------------------
       1  |  0:00.00 | 30:03.00 |         0    |   135224  
       2  | 30:03.00 | 17:31.00 |    135225    |   214049  


Track  1

    Filename C:\EAC\Mahler\Complete Symphonies and Orchestral Songs (Disc 15) - Symphony No. 9 - i. Andante comodo.wav

    Pre-gap length  0:00:02.00

    Peak level 99.9 %
    Track quality 100.0 %
    Test CRC 31306FBC
    Copy CRC 31306FBC
    Accurately ripped (confidence 5)  [3FC1E725]
    Copy OK

Track  2

    Filename C:\EAC\Mahler\Complete Symphonies and Orchestral Songs (Disc 15) - Symphony No. 9 - ii. Im Tempo eines gemachlichen Landlers.wav

    Peak level 96.4 %
    Track quality 99.9 %
    Test CRC DBE01ABC
    Copy CRC DBE01ABC
    Accurately ripped (confidence 5)  [3A5D6CE0]
    Copy OK


All tracks accurately ripped

No errors occurred

End of status report

Exact Audio Copy V0.99 prebeta 5 from 4. May 2009

EAC extraction logfile from 23. September 2009, 1:19

Mahler / Complete Symphonies and Orchestral Songs (Disc 16)

Used drive  : TSSTcorpCDDVDW SH-S223F   Adapter: 2  ID: 1

Read mode               : Secure
Utilize accurate stream : Yes
Defeat audio cache      : Yes
Make use of C2 pointers : No

Read offset correction                      : 6
Overread into Lead-In and Lead-Out          : No
Fill up missing offset samples with silence : Yes
Delete leading and trailing silent blocks   : No
Null samples used in CRC calculations       : Yes
Used interface                              : Native Win32 interface for Win NT & 2000
Gap handling                                : Appended to previous track

Used output format              : User Defined Encoder
Selected bitrate                : 192 kBit/s
Quality                         : High
Add ID3 tag                     : No
Command line compressor         : C:\Program Files (x86)\Exact Audio Copy\Flac\flac.exe
Additional command line options : -V -8 -T "artist=%a" -T "title=%t" -T "album=%g" -T "date=%y" -T "tracknumber=%n" -T "genre=%m" %s


TOC of the extracted CD

    Track |   Start  |  Length  | Start sector | End sector
   ---------------------------------------------------------
       1  |  0:00.00 | 11:52.00 |         0    |    53399  
       2  | 11:52.00 | 29:45.01 |     53400    |   187275  


Track  1

    Filename C:\EAC\Mahler\Complete Symphonies and Orchestral Songs (Disc 16) - Symphony No. 9 - iii. Rondo-Burleke. Allegro assai. Sehr trotzig.wav

    Pre-gap length  0:00:02.00

    Peak level 99.9 %
    Track quality 100.0 %
    Test CRC 952B9CC2
    Copy CRC 952B9CC2
    Accurately ripped (confidence 8)  [22142925]
    Copy OK

Track  2

    Filename C:\EAC\Mahler\Complete Symphonies and Orchestral Songs (Disc 16) - Symphony No. 9 - iv. Adagio. Sehr langsam und noch zuruckhaltend.wav

    Peak level 99.9 %
    Track quality 100.0 %
    Test CRC D926675B
    Copy CRC D926675B
    Accurately ripped (confidence 8)  [45F0576C]
    Copy OK


All tracks accurately ripped

No errors occurred

End of status report


Рип не мой, спасибо неизвестному оригинальному рипперу/аплоадеру.
залейте, пожалуйста, на ifolder.
залейте кто-нибудь восьмую симфонию, пожалуйста
очень хочется!
Bravo Dix Merveilles!!! Thanks!
Although it would be too much work, all the rghost links are dead :/ Please reupload?
последнее время очень часто слушаю 4-ую, особенно нравится конец 4-ой части. звучит все-таки просто потрясающе.
Spiegel im Spiegel
картинка, оставленная пользователем
картинка, оставленная пользователем
a reup of "Complete Symphonies and Orchestral Songs" would be daaaaamn great!
Gustav Mahler / Uri Caine: Urlicht / Primal Light (1996)
картинка, оставленная пользователем

1. Symphony No. 5, Funeral March 5:52
2.The Drummer Boy 5:45
3. Now Will The Sun Rise As Brightly 1:50
4. I Often Think They Have Merely Gone Out! 3:33
5. Symphony No. 1 Titan 12:02
6. Primal Light 2:31
7. I Went Out This Morning Over The Countryside, Resurrection 6:54
8. Symphony No. 5, Adagietto 10:35
9. The Drunkard In Spring 7:50
10. Who Thought Up This Song 2:36
11. The Farewell 12:59

192 kbps
http://www32.zippyshare.com/v/80809733/file.html
FLAC
http://rutracker.org/forum/viewtopic.php?t=4583562

Цитата:
Urlicht – первозданный свет.
Это обработки тем Густава Малера для небольшого то ли уличного, то ли джазового, то ли свадебного клецмер-оркестрика. Венские вальсы, free jazz, самодельная еврейская музыка, атмосферные звуки. Можно было бы сказать: «хитро закручено», если бы это не было так трогательно.
Наверное, этот альбом – самый лучший ответ на вопрос «о чём Ури Кейн?»

muzprosvet.ru

и правда очень крутой альбом, вдобавок к вышеперечисленному встречается тут и фанк и похоронные марши и даже виниловые скрэтчи)

Bass – Michael Formanek
Cello – Larry Gold
Clarinet – Don Byron
Drums – Joey Baron
Drums [Hand, Cantor] – Aaron Bensoussan
Guitar, Electronics – Danny Blume
Piano – Uri Caine
Saxophone [Soprano] – Dave Binney
Trombone – Josh Roseman
Trumpet – Dave Douglas
Turntables – DJ Olive
Violin – Mark Feldman
Vocals – Arto Lindsay, Dean Bowman
картинка, оставленная пользователем

картинка, оставленная пользователем
Скрытый текст / Hidden text
картинка, оставленная пользователем
Скрытый текст / Hidden text

Этот топик читают:

27 ответов с 31.10.05 в 11:55
Назад в Classical music