Hilltop Hoods Discography (1997 - 2012)

картинка, оставленная пользователем

Albums:


A Matter Of Time (1999)

картинка, оставленная пользователем

Tracklisting:

1. A Matter Of Time
2. 1979
3. The Anthem
4. Time Wasted
5. B-Boy Battlegear
6. Give It Up
7. Clap Your Hands To The...
8. Let Me Show You
9. Deaf Can Hear Featuring - Bukue One
10. Common Streets
11. A Matter Of Time (Rmx / Instr)
12. 1979 (Rmx)
13. Whatcha Got
14. Whatcha Got (Rmx / Instr)

192kbps: qooy // ifolder

Left Foot, Right Foot (2001)

картинка, оставленная пользователем

Tracklisting:

1. Are You Ready?
2. The Soul Of The Beat
3. Left Foot, Right Foot
4. Immortal MC's
5. What The Season's Change
6. Another World Featuring - Koolism
7. When I'm
8. Leaving Sideways
9. Running From The Storm
10. Distortion
11. Don't Stop
12. Elevation (DJ Bonez Remix)
13. Baby Steps
14. Sojourn
15. Tolerance Levels Featuring - Mass MC, Fatface
16. Immortal MC's (Remix)
17. I Believe Featuring - DJ Reflux
18. Omega

320kbps: qooy // ifolder

The Calling (Deluxe Edition) (2003)

картинка, оставленная пользователем

Tracklisting:

1. Incoming (Interlude 1)
2. Testimonial Year
3. The Calling
4. Dumb Enough
5. Illusionary Lines
6. Tomorrow Will Do
7. Laying Blame
8. Simmy And The Gravyspitter (Interlude 2)
9. The Nosebleed Section
10. Down For The Cause Featuring - DJ Bonez, Hyjak
11. Mic Felon
12. Walk On
13. The Certificate Featuring - Certified Wise
14. Hilltop Hoods (Interlude 3)
15. Working The Mic
16. Outgoing (Interlude 4)
17. The Sentinel
18. Here Come The Girls (Deluxe Edition Bonus Track)

320kbps: qooy // ifolder

The Hard Road (Deluxe Edition) (2006)

картинка, оставленная пользователем

Tracklisting:

1. Recapturing The Vibe
2. Clown Prince
3. The Hard Road
4. Stopping All Stations
5. Conversations From Speakeasy Featuring - Omni
6. What A Great Intro
7. What A Great Night (DNR)
8. City Of Light
9. Obese Lowlifes Featuring - Braintax, Mystro
10. Circuit Breaker
11. Breathe
12. The Blue Blooded Featuring - The Blue Blooded Allstars
13. Monsters Ball
14. An Audience With The Devil
15. The Captured Vibe
16. Ya Feel Big
17. I Can't Take It (Deluxe Edition Bonus Track)

320kbps: qooy // ifolder

The Hard Road: Restrung (Deluxe Edition) (2007)

картинка, оставленная пользователем

Tracklisting:

1. The Hard Road Restrung
2. Stopping All Stations Restrung
3. Conversations From Speakeasy Restrung
4. An Audience With The Devil Restrung
5. Monsters Ball Restrung
6. Breathe Restrung
7. Amother Great Intro
8. What A Great Night Restrung
9. Obese Lowlifes Restrung
10. City Of Light Restrung
11. Clown Prince Restrung
12. The Captured Vibe Restrung (Medley)
12. Recapturing The Vibe Restrung (Medley)
14. Roll On Up Restrung (Deluxe Edition Bonus Track)

320kbps: qooy // ifolder

State Of The Art (2009)

картинка, оставленная пользователем

Tracklisting:

1. The Return
2. Super Offical
3. Chase That Feeling
4. She's So Ugly
5. Still Standing
6. Classic Example Featuring - Pharoahe Monch
7. Chris Farley
8. The Light You Burned Featuring - Trials
9. Parade Of The Dead
10. Last Confession
11. Hilltoppa
12. Fifty In Five
13. State Of The Art

320kbps: qooy // ifolder

Drinking From The Sun (2012)

картинка, оставленная пользователем

Tracklisting:

1. The Thirst Pt. 1
2. Drinking From The Sun
3. I Love It Featuring - Sia
4. Lights Out
5. Living in Bunkers Featuring - Lotek & Black Thought
6. Speaking In Tongues Featuring - Chali 2na
7. Now You’re Gone
8. Good For Nothing
9. Rattling The Keys To The Kingdom
10. The Thirst Pt. 2
11. The Underground Featuring - Classified & Solo
12. Shredding The Balloon
13. The Thirst Pt. 3
14. Good For Nothing (K21 Remix)
15. Drinking From The Sun (K21 Remix)

320kbps: qooy // ifolder


EP & Singles:


Back Once Again (EP) (1997)

картинка, оставленная пользователем

Tracklisting:

1. Intro
2. Back Once Again
3. Shades Of Grey
4. No Redemption
5. Mankind Must Suffa Featuring - Quiromysties
6. Gemini
7. Back Once Again Remix

192kbps: qooy // ifolder

The Hard Road (Single) (2006)
картинка, оставленная пользователем

Tracklisting:

1. The Hard Road
2. The Hard Road (Suffa Remix)
3. The Hard Road (Plutonic Lab Remix)
4. Recapturing The Vibe (Sesta Remix)
5. The Hard Road (Instrumental)
6. The Hard Road (Suffa Remix Instrumental)

320kbps: qooy // ifolder

Clown Prince (Single) (2006)
картинка, оставленная пользователем

Tracklisting:

1. Clown Prince (Vocal)
2. Clown Prince (Radio Edit)
3. Clown Prince (Instrumental)
4. Clown Prince (Remix Vocal)
5. Clown Prince (Remix Radio Edit)
6. Clown Prince (Remix Instrumental)

320kbps: qooy // ifolder

What A Great Night (Single) (2006)
картинка, оставленная пользователем

Tracklisting:

1. What A Great Night (Original)
2. What A Great Night (Simplex Remix)
3. What A Great Night (F & D Remix)
4. What A Great Night (Radio Edit)
5. What A Great Night (Simplex Radio Edit)
6. Recapturing The Vibe (Radio Edit)
7. What A Great Night (Instrumental)
8. What A Great Night (Simplex Remix Instrumental)

320kbps: qooy // ifolder

Chase That Feeling (Single) (2009)
картинка, оставленная пользователем

Tracklisting:

1. Chase That Feeling (Radio Edit)
2. Chase That Feeling (Explicit)
3. Chase That Feeling (Instrumental)
4. Chase That Feeling (Remix)
5. Chase That Feeling (Remix Instrumental)

320kbps: qooy // ifolder


Это сообщение отредактировал EXtrez - 24.04.12 в 8:58
Nabuhodanosor
Линк в личку было бы замечательно)))

Nabuhodanosor
ну лана если такой принципиальный blink.gif
обещаю не постить тогда твой залив
Блииииин! Достал DVD "City Of Lights"! Это что-то!!! Ааааа!!! Скоро буду рипать)))
ребят, а можно заранее попросить кого-нить с "жирным" инет каналом, чтоб по кусочкам потом перелили дивидиху на ifolder? ну или самого s.Kit. уж очень хочется глянуть.
s.Kit
чел давай уже рипай быстрей thumb.gif
andramed
Звиняй, у меня на залив всего 15 кбит/с, я не возьмусь 4.5 Гб лить))

pro100_rav
Уже рипаю! Куда удобней будет слить?
s.Kit, так ты рип делаешь или собираешься скопировать просто?))) я про рип говорю, вообще-то)
andramed
А, ну так рип я делаю. Я думал саму двдху надо))
Если кому все-таки приспичит ее заиметь, то я скоро на torrents.ru раздачу устрою, там проще, чем сливать по частям smile.gif
о, тоже вариант. пасиб заранее!
s.Kit
Цитата:
Если кому все-таки приспичит ее заиметь, то я скоро на torrents.ru раздачу устрою, там проще, чем сливать по частям smile.gif

кинешь линк сюда на раздачу, плз smile.gif
да-да)
s.Kit
zshara я думаю всех устроит wink.gif
Hilltop Hoods - The Hard Road Restrung [2007] (FLAC)

картинка, оставленная пользователем

EAC log
EAC extraction logfile from 16. June 2007, 14:12 for CD
Hilltop Hoods / The Hard Road: Restrung

Used drive : QSI CDRW/DVD SBW-242 Adapter: 1 ID: 0
Read mode : Secure with NO C2, accurate stream, disable cache
Read offset correction : 594
Overread into Lead-In and Lead-Out : No

Used output format : C:\Program Files\FLAC\bin\flac.exe (User Defined Encoder)
192 kBit/s
Additional command line options : -V -8 -T "artist=%a" -T "title=%t" -T "album=%g" -T "date=%y" -T "tracknumber=%n" -T "genre=%m" %s

Other options :
Fill up missing offset samples with silence : Yes
Delete leading and trailing silent blocks : No
Installed external ASPI interface


Track 1
Filename d:\data\Downloads\Hilltops Hoods - The Hard Road Restrung [2007] - The Hard Road Restrung.wav

Pre-gap length 0:00:02.00

Peak level 98.8 %
Track quality 100.0 %
Test CRC 117C875D
Copy CRC 117C875D
Copy OK

Track 2
Filename d:\data\Downloads\Hilltops Hoods - The Hard Road Restrung [2007] - Stopping All Stations Restrung.wav

Peak level 98.8 %
Track quality 99.9 %
Test CRC 04286671
Copy CRC 04286671
Copy OK

Track 3
Filename d:\data\Downloads\Hilltops Hoods - The Hard Road Restrung [2007] - Conversations From A Speakeasy Restrung.wav

Pre-gap length 0:00:00.97

Peak level 98.8 %
Track quality 100.0 %
Test CRC E46A7005
Copy CRC E46A7005
Copy OK

Track 4
Filename d:\data\Downloads\Hilltops Hoods - The Hard Road Restrung [2007] - An Audience With The Devil Restrung.wav

Peak level 98.8 %
Track quality 100.0 %
Test CRC E6AFAA57
Copy CRC E6AFAA57
Copy OK

Track 5
Filename d:\data\Downloads\Hilltops Hoods - The Hard Road Restrung [2007] - Monsters Ball Restrung.wav

Pre-gap length 0:00:01.18

Peak level 98.7 %
Track quality 99.9 %
Test CRC CE82AEDD
Copy CRC CE82AEDD
Copy OK

Track 6
Filename d:\data\Downloads\Hilltops Hoods - The Hard Road Restrung [2007] - Breathe Restrung.wav

Pre-gap length 0:00:01.82

Peak level 98.8 %
Track quality 100.0 %
Test CRC F2F02A82
Copy CRC F2F02A82
Copy OK

Track 7
Filename d:\data\Downloads\Hilltops Hoods - The Hard Road Restrung [2007] - Another Great Intro.wav

Pre-gap length 0:00:01.88

Peak level 38.7 %
Track quality 100.0 %
Test CRC 3ED26794
Copy CRC 3ED26794
Copy OK

Track 8
Filename d:\data\Downloads\Hilltops Hoods - The Hard Road Restrung [2007] - What A Great Night Restrung.wav

Peak level 98.8 %
Track quality 100.0 %
Test CRC 2A5CAC01
Copy CRC 2A5CAC01
Copy OK

Track 9
Filename d:\data\Downloads\Hilltops Hoods - The Hard Road Restrung [2007] - Obese Lowlifes Restrung.wav

Pre-gap length 0:00:01.94

Peak level 98.8 %
Track quality 100.0 %
Test CRC C8DB4293
Copy CRC C8DB4293
Copy OK

Track 10
Filename d:\data\Downloads\Hilltops Hoods - The Hard Road Restrung [2007] - City Of Light Restrung.wav

Pre-gap length 0:00:01.25

Peak level 98.7 %
Track quality 100.0 %
Test CRC 17450F96
Copy CRC 17450F96
Copy OK

Track 11
Filename d:\data\Downloads\Hilltops Hoods - The Hard Road Restrung [2007] - Clown Prince Restrung.wav

Pre-gap length 0:00:00.81

Peak level 98.8 %
Track quality 100.0 %
Test CRC CDACAE96
Copy CRC CDACAE96
Copy OK

Track 12
Filename d:\data\Downloads\Hilltops Hoods - The Hard Road Restrung [2007] - The Captured Vibe Restrung.wav

Peak level 91.0 %
Track quality 100.0 %
Test CRC 29D2529C
Copy CRC 29D2529C
Copy OK

Track 13
Filename d:\data\Downloads\Hilltops Hoods - The Hard Road Restrung [2007] - Recapturing The Vibe Restrung.wav

Peak level 91.0 %
Track quality 99.9 %
Test CRC 6E9C4BDF
Copy CRC 6E9C4BDF
Copy OK

Track 14
Filename d:\data\Downloads\Hilltops Hoods - The Hard Road Restrung [2007] - Roll On Up.wav

Peak level 98.8 %
Track quality 100.0 %
Test CRC 6BDABECC
Copy CRC 6BDABECC
Copy OK

No errors occured


End of status report


01. The Hard Road Restrung
02. Stopping All Stations Restrung
03. Conversations From A Speakeasy Restrung (Feat. Okwerdz And Omni)
04. An Audience With The Devil Restrung
05. Monsters Ball Restrung
06. Breathe Restrung
07. Another Great Intro
08. What A Great Night Restrung
09. Obese Lowlifes Restrung (Feat. Mystro And Braintax)
10. City Of Light Restrung
11. Clown Prince Restrung
12. The Captured Vibe Restrung
13. Recapturing The Vibe Restrung
14. Roll On Up

Ссылка:
http://uploaded.to/?id=dgfnho
http://uploaded.to/?id=wsqbnq
http://uploaded.to/?id=yc5uw0

Ссылка:
http://rapidshare.com/files/81689066/hilltops_hoods.part1.rar
http://rapidshare.com/files/81695141/hilltops_hoods.part2.rar
http://rapidshare.com/files/81701096/hilltops_hoods.part3.rar
zam35
чел это конечно мега круть
но меня в 320 устроит
могешь закинуть на uploaded.to wink.gif
pro100_rav
не, в 320 не могу smile.gif нету

Этот топик читают:

572 ответов с 03.11.05 в 4:42
Назад в Underground & Abstract