Jacques Brel - Brel En Public - Olympia 64 - 1964

01. Amsterdam
02. Les timides
03. Le dernier repas
04. Les jardins du casino
05. Les vieux
06. Les toros
07. Tango funèbre
08. Le plat pays
09. Les bonbons
10. Mathilde
11. Les bigotes
12. Les bourgeois
13. Jef
14. Au suivant
15. Madeleine

http://rapidshare.com/files/21572908/Jacqu..._Olympia_64.rar
Good Album from nice friend.Cheers
Jacques Brel - Les 16 plus belles chansons

01 - La valse à mille temps
02 - Ne me quitte pas
03 - Quand on n'a que l'amour
04 - Le plat pays
05 - Les vieux
06 - Mathilde
07 - La chanson de Jacky
08 - Ces gens là
09 - La chanson des vieux amants
10 - Amsterdam (Olympia 1964)
11 - Vesoul
12 - L'éclusier
13 - La Fanette
14 - Le moribond
15 - Madeleine
16 - La ville s'endormait

http://www.subemelo.com/descarga.php?file=807008
JACQUES BREL - LES MARQUISES (1977)

1. Jaures
2. La ville s'endormait
3. Vieillir
4. Le bon dieu
5. Les F...
6. Orly
7. Les remparts de Varsovie
8. Voir un ami pleurer
9. Knoffe-le-zoute tango
10. Jojo
11. Le lion
12. Les marquises
Bonus tracks
13. Sans éxigences
14. Avec élégance
15. Mai 40
16. L'amour est mort
17. La cathédrale

http://rapidshare.com/files/81885430/JBLM77.rar
Would you happen to know what the password to that is?
it's hard to hold the hand of anyone who is reaching for the sky just to surrender
try this??? sarah

Password: MOODSWINGS
Я не говорю по-русски!
Yes, pass: MOODSWINGS. smile.gif

Sorry wink.gif
Thank you both very much!!! biggrin.gif
it's hard to hold the hand of anyone who is reaching for the sky just to surrender


BREL LA VALSE A MILLE TEMPS (1959)
320 KBPS

1. La valse à mille temps
2. Seul
3. La dame patronesse
4. Je t'aime
5. Ne me quitte pas
6. Les flamandes
7. Isabelle
8. La mort
9. La tendresse
10. La colombe

http://rapidshare.com/files/83647425/JBLVAMT59.rar

password: MOODSWINGS



BREL MARIEKE (1961)
320 KBPS

1 Marieke
2 Le moribond
3 Vivre debout
4 On n'oublie rien
5 Clara
6 Le prochain amour
7 L'ivrogne
8 Les prénoms de Paris
9 Les singes
Bonus tracks
10 Marieke (version flamande)
11 Laat me niet alleen (ne me quitte pas)
12 De apen (les singes)
13 Men vergieet niets (on n'oublie rien)
14 Le prochain amour

http://rapidshare.com/files/83614096/JBM61.rar

password: MOODSWINGS


BREL ENREGISTREMENT PUBLIC A L'OLYMPIA 1961 (1961)
320 KBPS

1. Les prénoms de Paris
2. Les bourgeois
3. Les paumés du petit matin
4. Les flamandes
5. La statue
6. Zangra
7. Marieke
8. Les biches
9. Madeleine
10. Les singes
11. L'ivrogne
12. La valse à mille temps
13. Ne me quitte pas
14. Le moribond
15. Quand on n'a que l'amour

password: MOODSWINGS

http://rapidshare.com/files/83603502/JBEPALO61.rar



Brel AU PRINTEMPS (1958)
320 KBPS

1. Demain l'on se marie (la chanson des fiancés)
2. Au printemps
3. Je ne sais pas
4. Le colonel
5. Dors ma mie
6. La lumière jaillira
7. Dites, si c'était vrai (poème)
8. L'homme dans la cité
9. Litanies pour un retour
10. Voici
Bonus tracks
11. Voir
12. L'aventure
13. Dites, si c'était vrai (poème)

http://rapidshare.com/files/83649338/JBAP58.rar

password: MOODSWINGS
картинка, оставленная пользователем
rapidshare is out of use at this moment. can you re upload in an other link? Thanks
just visit the moodswings music blog for a lot of Jacques Brel, that wil be a lot easier I think! And thank Stefan for uploading this marvelous stuff!
http://my.opera.com/STEFANfromPARIS/blog/

Это сообщение отредактировал detectiefvanzwam - 29.01.08 в 12:00
thanks a lot thumb.gif
Гениальный человечище Jacques Brel...
Алексей ИВАнов,
это точно.
  
картинка, оставленная пользователем
ARTIST: Jacques Brel
ALBUM: Jacques Brel [Compilation] (2 x CD)
YEAR: 1990
BITRATE: V0(VBR)
Log
EAC extraction logfile from 10. June 2008, 2:59 for CD
Jacques Brel / Jacques Brel [Compact 1]

Used drive : HL-DT-STRW/DVD GCC-4244N Adapter: 0 ID: 1
Read mode : Secure with NO C2, accurate stream, disable cache
Read offset correction : 102
Overread into Lead-In and Lead-Out : No

Used output format : D:\Program Files\Exact Audio Copy\lame.exe (User Defined Encoder)
192 kBit/s
Additional command line options : -V 0 --vbr-new --add-id3v2 --ignore-tag-errors --ta "%a" --tt "%t" --tg "%m" --tl "%g" --ty "%y" --tn "%n" %s %d

Other options :
Fill up missing offset samples with silence : Yes
Delete leading and trailing silent blocks : No
Installed external ASPI interface


Track 1
Filename C:\Documents and Settings\Карен\Рабочий стол\jacques1 Amsterdam (En Public A L'Olympia).wav

Pre-gap length 0:00:02.44

Peak level 86.7 %
Track quality 100.0 %
Test CRC FA718DF6
Copy CRC FA718DF6
Copy OK

Track 2
Filename C:\Documents and Settings\Карен\Рабочий стол\jacques1 Les Bergers.wav

Pre-gap length 0:00:01.09

Peak level 97.4 %
Track quality 100.0 %
Test CRC 980CC03A
Copy CRC 980CC03A
Copy OK

Track 3
Filename C:\Documents and Settings\Карен\Рабочий стол\jacques1 Au Suivant.wav

Pre-gap length 0:00:01.93

Peak level 94.1 %
Track quality 100.0 %
Test CRC B621F0D3
Copy CRC B621F0D3
Copy OK

Track 4
Filename C:\Documents and Settings\Карен\Рабочий стол\jacques1 Rosa.wav

Pre-gap length 0:00:01.86

Peak level 80.5 %
Track quality 100.0 %
Test CRC BBD40A9C
Copy CRC BBD40A9C
Copy OK

Track 5
Filename C:\Documents and Settings\Карен\Рабочий стол\jacques1 Les Paumes Du Petit Matin.wav

Pre-gap length 0:00:02.20

Peak level 78.8 %
Track quality 99.9 %
Test CRC 5B5B8A50
Copy CRC 5B5B8A50
Copy OK

Track 6
Filename C:\Documents and Settings\Карен\Рабочий стол\jacques1 Ces Gens-la.wav

Pre-gap length 0:00:02.40

Peak level 100.0 %
Track quality 100.0 %
Test CRC CAB100B0
Copy CRC CAB100B0
Copy OK

Track 7
Filename C:\Documents and Settings\Карен\Рабочий стол\jacques1 Les Bigotes.wav

Pre-gap length 0:00:02.22

Peak level 72.2 %
Track quality 100.0 %
Test CRC 50F3AB20
Copy CRC 50F3AB20
Copy OK

Track 8
Filename C:\Documents and Settings\Карен\Рабочий стол\jacques1 La Fanette.wav

Pre-gap length 0:00:01.40

Peak level 82.4 %
Track quality 99.9 %
Test CRC 63DC7EE7
Copy CRC 63DC7EE7
Copy OK

Track 9
Filename C:\Documents and Settings\Карен\Рабочий стол\jacques1 Vesoul.wav

Pre-gap length 0:00:01.69

Peak level 86.2 %
Track quality 100.0 %
Test CRC D864C233
Copy CRC D864C233
Copy OK

Track 10
Filename C:\Documents and Settings\Карен\Рабочий стол\jacques1 Les Biches.wav

Pre-gap length 0:00:02.00

Peak level 86.9 %
Track quality 100.0 %
Test CRC 875C2030
Copy CRC 875C2030
Copy OK

Track 11
Filename C:\Documents and Settings\Карен\Рабочий стол\jacques1 Ne Me Quitte Pas.wav

Pre-gap length 0:00:02.62

Peak level 55.0 %
Track quality 100.0 %
Test CRC BAFA6489
Copy CRC BAFA6489
Copy OK

Track 12
Filename C:\Documents and Settings\Карен\Рабочий стол\jacques1 Quand On N'a Que L'Amour.wav

Pre-gap length 0:00:02.70

Peak level 100.0 %
Track quality 100.0 %
Test CRC 75077A21
Copy CRC 75077A21
Copy OK

Track 13
Filename C:\Documents and Settings\Карен\Рабочий стол\jacques1 La Valse A Mille Temps.wav

Pre-gap length 0:00:02.09

Peak level 86.6 %
Track quality 99.9 %
Test CRC 9D2FE13A
Copy CRC 9D2FE13A
Copy OK

Track 14
Filename C:\Documents and Settings\Карен\Рабочий стол\jacques1 Madeleine.wav

Pre-gap length 0:00:02.64

Peak level 74.7 %
Track quality 100.0 %
Test CRC 3ED15B00
Copy CRC 3ED15B00
Copy OK

Track 15
Filename C:\Documents and Settings\Карен\Рабочий стол\jacques1 Les Bourgeois.wav

Pre-gap length 0:00:02.26

Peak level 84.6 %
Track quality 100.0 %
Test CRC F6926958
Copy CRC F6926958
Copy OK

Track 16
Filename C:\Documents and Settings\Карен\Рабочий стол\jacques1 Le Moribond.wav

Pre-gap length 0:00:02.60

Suspicious position 0:02:40

Peak level 87.7 %
Track quality 99.4 %
Test CRC A129DEA4
Copy CRC 7F198586
Copy finished

Track 17
Filename C:\Documents and Settings\Карен\Рабочий стол\jacques1 Les Flamandes.wav

Pre-gap length 0:00:02.17

Peak level 76.7 %
Track quality 100.0 %
Test CRC 935A1A93
Copy CRC 935A1A93
Copy OK

There were errors


End of status report

EAC extraction logfile from 10. June 2008, 1:11 for CD
Jacques Brel / Jacques Brel [Compact 2]

Used drive : HL-DT-STRW/DVD GCC-4244N Adapter: 0 ID: 1
Read mode : Secure with NO C2, accurate stream, disable cache
Read offset correction : 102
Overread into Lead-In and Lead-Out : No

Used output format : D:\Program Files\Exact Audio Copy\lame.exe (User Defined Encoder)
192 kBit/s
Additional command line options : -V 0 --vbr-new --add-id3v2 --ignore-tag-errors --ta "%a" --tt "%t" --tg "%m" --tl "%g" --ty "%y" --tn "%n" %s %d

Other options :
Fill up missing offset samples with silence : Yes
Delete leading and trailing silent blocks : No
Installed external ASPI interface


Track 1
Filename C:\Documents and Settings\Карен\Рабочий стол\jacques Les Bonbons.wav

Pre-gap length 0:00:02.44

Peak level 82.0 %
Track quality 99.9 %
Test CRC 077006F2
Copy CRC 077006F2
Copy OK

Track 2
Filename C:\Documents and Settings\Карен\Рабочий стол\jacques Le Plat Pays.wav

Pre-gap length 0:00:02.13

Peak level 50.1 %
Track quality 99.9 %
Test CRC DEB86B4B
Copy CRC DEB86B4B
Copy OK

Track 3
Filename C:\Documents and Settings\Карен\Рабочий стол\jacques Mathilde.wav

Pre-gap length 0:00:01.96

Peak level 90.7 %
Track quality 99.9 %
Test CRC 1BBDAC7B
Copy CRC 1BBDAC7B
Copy OK

Track 4
Filename C:\Documents and Settings\Карен\Рабочий стол\jacques Une Ile.wav

Pre-gap length 0:00:02.17

Peak level 83.4 %
Track quality 99.9 %
Test CRC 5D3ACD7C
Copy CRC 5D3ACD7C
Copy OK

Track 5
Filename C:\Documents and Settings\Карен\Рабочий стол\jacques La Quete.wav

Pre-gap length 0:00:02.30

Peak level 100.0 %
Track quality 100.0 %
Test CRC 94C9E7D0
Copy CRC 94C9E7D0
Copy OK

Track 6
Filename C:\Documents and Settings\Карен\Рабочий стол\jacques Bruxelles.wav

Pre-gap length 0:00:02.60

Peak level 83.3 %
Track quality 100.0 %
Test CRC 75B8091B
Copy CRC 75B8091B
Copy OK

Track 7
Filename C:\Documents and Settings\Карен\Рабочий стол\jacques Les Toros.wav

Pre-gap length 0:00:02.44

Peak level 92.3 %
Track quality 100.0 %
Test CRC B47DFBB1
Copy CRC B47DFBB1
Copy OK

Track 8
Filename C:\Documents and Settings\Карен\Рабочий стол\jacques Les Vieux.wav

Pre-gap length 0:00:02.26

Peak level 88.8 %
Track quality 100.0 %
Test CRC 05EDBEE6
Copy CRC 05EDBEE6
Copy OK

Track 9
Filename C:\Documents and Settings\Карен\Рабочий стол\jacques Jacky.wav

Pre-gap length 0:00:02.13

Peak level 93.3 %
Track quality 100.0 %
Test CRC 5AAE8767
Copy CRC 5AAE8767
Copy OK

Track 10
Filename C:\Documents and Settings\Карен\Рабочий стол\jacques Vieillir.wav

Pre-gap length 0:00:02.37

Peak level 83.9 %
Track quality 100.0 %
Test CRC 940594D1
Copy CRC 940594D1
Copy OK

Track 11
Filename C:\Documents and Settings\Карен\Рабочий стол\jacques Le Dernier Repas.wav

Pre-gap length 0:00:02.04

Peak level 98.1 %
Track quality 100.0 %
Test CRC C688CE88
Copy CRC C688CE88
Copy OK

Track 12
Filename C:\Documents and Settings\Карен\Рабочий стол\jacques Orly.wav

Pre-gap length 0:00:02.42

Peak level 97.4 %
Track quality 100.0 %
Test CRC F3E6F5AB
Copy CRC F3E6F5AB
Copy OK

Track 13
Filename C:\Documents and Settings\Карен\Рабочий стол\jacques Marieke.wav

Pre-gap length 0:00:02.17

Peak level 68.9 %
Track quality 100.0 %
Test CRC 260029F5
Copy CRC 260029F5
Copy OK

Track 14
Filename C:\Documents and Settings\Карен\Рабочий стол\jacques Fernand.wav

Pre-gap length 0:00:02.33

Peak level 99.9 %
Track quality 100.0 %
Test CRC E8B0DC82
Copy CRC E8B0DC82
Copy OK

Track 15
Filename C:\Documents and Settings\Карен\Рабочий стол\jacques La Chanson Des Vieux Amants.wav

Pre-gap length 0:00:02.24

Peak level 95.5 %
Track quality 100.0 %
Test CRC DF6CAD9E
Copy CRC DF6CAD9E
Copy OK

Track 16
Filename C:\Documents and Settings\Карен\Рабочий стол\jacques Les Marquises.wav

Pre-gap length 0:00:02.46

Peak level 66.3 %
Track quality 99.9 %
Test CRC 76BC9CE6
Copy CRC 76BC9CE6
Copy OK

Track 17
Filename C:\Documents and Settings\Карен\Рабочий стол\jacques Jojo.wav

Pre-gap length 0:00:02.53

Peak level 83.7 %
Track quality 100.0 %
Test CRC 6084C9E3
Copy CRC 6084C9E3
Copy OK

No errors occured


End of status report

Tracklisting
картинка, оставленная пользователем

Ссылка:
http://www.shareonall.com/JCQSBRL_CMPLTN.part1_kxva_rar.htm
http://www.shareonall.com/JCQSBRL_CMPLTN.part2_dflf_rar.htm
http://www.shareonall.com/JCQSBRL_CMPLTN.part3_hkrv_rar.htm
картинка, оставленная пользователем

Этот топик читают:

51 ответов с 23.09.05 в 2:52
Назад в Chanson/Bard