картинка, оставленная пользователем

Kanute - Standing Room Only [2009]
Kanute-Standing_Room_Only-2009-FST
Release Info
Label: Not On Label
Released: 29 June 2009
Genre: Electronic
Style: Downtempo, Trip-Hop
Quality: 320 kbps / 44.1 kHz
Time: 37:48 min
Size: 86.5 mb
Incl.: m3u, nfo, sfv, cover
Ripped by: barey, FST
Tracklist
01. Not Sleeping
02. Too Much
03. Finale
04. Tangle Me
05. Days
06. Frosting
07. Heart(less)
08. Academy
09. Seventeen
10. Waves
Download
Ссылка:
http://ifolder.ru/19769919
Ссылка:
http://rapidshare.com/files/425211252/Kanute-Standing_Room_Only-2009-FST.rar
Ссылка:
http://depositfiles.com/files/643dl3hat

-------------------------------------------------------
Kanute - Standing Room Only [2009]
Kanute-Standing_Room_Only-2009-FLAC
Release Info
Label: Not On Label
Released: 29 June 2009
Genre: Electronic
Style: Downtempo, Trip-Hop
Quality: Lossless
Time: 37:48 min
Size: 250 mb
Incl.: log, cue, cover
Log
Цитата:
Exact Audio Copy V0.99 prebeta 5 from 4. May 2009

EAC extraction logfile from 30. September 2010, 13:08

Kanute / Standing Room Only

Used drive  : SATA-DVDDROM6316   Adapter: 2  ID: 1

Read mode               : Secure
Utilize accurate stream : Yes
Defeat audio cache      : No
Make use of C2 pointers : Yes

Read offset correction                      : 6
Overread into Lead-In and Lead-Out          : No
Fill up missing offset samples with silence : Yes
Delete leading and trailing silent blocks   : No
Null samples used in CRC calculations       : Yes
Used interface                              : Native Win32 interface for Win NT & 2000
Gap handling                                : Appended to previous track

Used output format              : User Defined Encoder
Selected bitrate                : 320 kBit/s
Quality                         : High
Add ID3 tag                     : No
Command line compressor         : C:\Program Files\Exact Audio Copy\Flac\flac.exe
Additional command line options : -V -8 -T "artist=%a" -T "title=%t" -T "album=%g" -T "date=%y" -T "tracknumber=%n" -T "genre=%m" %s


TOC of the extracted CD

     Track |   Start  |  Length  | Start sector | End sector
    ---------------------------------------------------------
        1  |  0:00.00 |  4:07.41 |         0    |    18565  
        2  |  4:07.41 |  3:08.24 |     18566    |    32689  
        3  |  7:15.65 |  3:54.33 |     32690    |    50272  
        4  | 11:10.23 |  4:08.54 |     50273    |    68926  
        5  | 15:19.02 |  4:28.74 |     68927    |    89100  
        6  | 19:48.01 |  1:57.63 |     89101    |    97938  
        7  | 21:45.64 |  3:39.00 |     97939    |   114363  
        8  | 25:24.64 |  3:23.34 |    114364    |   129622  
        9  | 28:48.23 |  3:30.31 |    129623    |   145403  
       10  | 32:18.54 |  5:28.20 |    145404    |   170023  


Track  1

     Filename C:\Users\Bortron\Music\EAC\Kanute - Standing Room Only\01 - Not Sleeping.wav

     Pre-gap length  0:00:02.00

     Peak level 96.4 %
     Track quality 100.0 %
     Test CRC 6E996705
     Copy CRC 6E996705
     Accurately ripped (confidence 1)  [EE9860A7]
     Copy OK

Track  2

     Filename C:\Users\Bortron\Music\EAC\Kanute - Standing Room Only\02 - Too Much.wav

     Peak level 96.8 %
     Track quality 100.0 %
     Test CRC 48CB6CF4
     Copy CRC 48CB6CF4
     Accurately ripped (confidence 1)  [B93DF700]
     Copy OK

Track  3

     Filename C:\Users\Bortron\Music\EAC\Kanute - Standing Room Only\03 - Finale.wav

     Peak level 99.1 %
     Track quality 100.0 %
     Test CRC 7EEFE713
     Copy CRC 7EEFE713
     Accurately ripped (confidence 1)  [FDB2030B]
     Copy OK

Track  4

     Filename C:\Users\Bortron\Music\EAC\Kanute - Standing Room Only\04 - Tangle Me.wav

     Peak level 98.4 %
     Track quality 100.0 %
     Test CRC B2925715
     Copy CRC B2925715
     Accurately ripped (confidence 1)  [C7C1584A]
     Copy OK

Track  5

     Filename C:\Users\Bortron\Music\EAC\Kanute - Standing Room Only\05 - Days.wav

     Peak level 98.7 %
     Track quality 99.9 %
     Test CRC 4C04B3D9
     Copy CRC 4C04B3D9
     Accurately ripped (confidence 1)  [A91215F1]
     Copy OK

Track  6

     Filename C:\Users\Bortron\Music\EAC\Kanute - Standing Room Only\06 - Frosting.wav

     Peak level 100.0 %
     Track quality 100.0 %
     Test CRC 5B1FC073
     Copy CRC 5B1FC073
     Accurately ripped (confidence 1)  [9A833454]
     Copy OK

Track  7

     Filename C:\Users\Bortron\Music\EAC\Kanute - Standing Room Only\07 - Heart(less).wav

     Peak level 98.0 %
     Track quality 100.0 %
     Test CRC 9910F62B
     Copy CRC 9910F62B
     Accurately ripped (confidence 1)  [19D3272A]
     Copy OK

Track  8

     Filename C:\Users\Bortron\Music\EAC\Kanute - Standing Room Only\08 - Academy.wav

     Peak level 96.8 %
     Track quality 100.0 %
     Test CRC 138C57C7
     Copy CRC 138C57C7
     Accurately ripped (confidence 1)  [442883F5]
     Copy OK

Track  9

     Filename C:\Users\Bortron\Music\EAC\Kanute - Standing Room Only\09 - Seventeen.wav

     Peak level 98.1 %
     Track quality 100.0 %
     Test CRC 8DCB7177
     Copy CRC 8DCB7177
     Accurately ripped (confidence 1)  [E4A7A921]
     Copy OK

Track 10

     Filename C:\Users\Bortron\Music\EAC\Kanute - Standing Room Only\10 - Waves.wav

     Peak level 96.4 %
     Track quality 100.0 %
     Test CRC 7444EC07
     Copy CRC 7444EC07
     Accurately ripped (confidence 1)  [98391DFF]
     Copy OK


All tracks accurately ripped

No errors occurred

End of status report
Download
Ссылка:
http://ifolder.ru/19770366
Ссылка:
http://depositfiles.com/files/6am7l8m0b
Я модерирую когда захочу.
Barey , благодарю!!! Давненько искал хотя бы в 320, очень понравился альбом. Ни где не видал хорошего рипа, еще раз спасибо.
Огромное спасибо barey за флак!!! Вот так обрадовал, так обрадовал!!! biggrin.gif

Это сообщение отредактировал acridplacid - 15.10.10 в 16:53
картинка, оставленная пользователем
судя по майспейсу Morcheeba напоминает, качаю флак, спасибо barey
сколько хайром не тряси - круче всех "AC/DC"
Альбом немного разочаровал, скорее он получился чрезвычайно спокойным, что от Роба точно уж не ожидаешь! Интересными показались лишь Not Sleeping и Days...вообщем - лучше бы он второй сольный альбом наконец-то запаял!

P.S: barey отдельное спасибо друг, я уж и ненадеялся этот релиз в качестве послушать! thumb.gif

Это сообщение отредактировал hotura - 22.10.10 в 21:10
Альбом чистейший мёд, спасибо за такую музыку... И вот собственно вопрос- есть ли кто нибудь похожий, с таким же настроением, таким вокалом, да и вообще, кого в подобной музыке стоит искать, слушать и излучать счастье?)
картинка, оставленная пользователем
картинка, оставленная пользователем
картинка, оставленная пользователем
афигенно.... спасибо
That is fuc'''g amusement sound of the fuc'''g universe.
на фоне походу Моби ))
Прошу прощения
Нужна Ваша оценка личного Блога...
Чудо STEREO Пластинка
Приятный альбом thumb.gif
Kanute - Standing Room Only 320 kb/s

http://www.multiupload.com/4QZFX0QC7U
Никто не знает, продолжают ли они действовать? Я в восторге от первого альбома... На офф сайте написано лишь то, что ищут нового гитариста. Первая пластинка это просто что то распрекрасное. Хочется чего нибудь нового от них услышать уже..
картинка, оставленная пользователем
картинка, оставленная пользователем
картинка, оставленная пользователем
Жаль, что проект замолчал. На офф сайте написано по прежнему, что ищут нового гитариста. Пусть что ли в "Жди меня" обратятся, не знаю, но очень хочется услышать от них что нибудь!
картинка, оставленная пользователем
картинка, оставленная пользователем
картинка, оставленная пользователем
Прекрасный альбом с сочным звуком, богатыми аранжировками и красивым вокалом. На втором прослушивании уже смаковал каждую песню.
То же надеюсь на продолжение банкета. rolleyes.gif
Цитата:
Жаль, что проект замолчал. На офф сайте написано по прежнему, что ищут нового гитариста. Пусть что ли в "Жди меня" обратятся, не знаю, но очень хочется услышать от них что нибудь!

Лучше бы от Роба Оверсира что-то новенькое услыхать!
Ждемс smile.gif
картинка, оставленная пользователем
Our lives are defined by opportunities, even the ones we miss.

картинка, оставленная пользователем

Этот топик читают:

55 ответов с 01.09.09 в 6:34
Назад в Electronic / Easy Listening