Перед лицом гигантских пчел / Facing The Giant Bees (2011)

картинка, оставленная пользователем

imdb

Nepal - the sheer cliffs of the Himalayas. Suspended from fragile ladders of woven bamboo, men risk their lives in search of the golden liquid valued since the dawn of time: honey. But to reach the treasure, they must confront the giant bees. The wild bee of Nepal is the largest bee species in the world - its sting is potentially fatal. Only the bravest and toughest still face the challenge of gathering the wild honey. Moti will climb for the first time and will take us on three spectacular ascents. He will confront the dizzying void off the cliffs and the terrible daggers of the bees. Will he be able to do it?


Info
File:
Format: Matroska
File size: 1.48 GiB
Duration: 52mn 31s
Overall bit rate: 4 022 Kbps

Video:
Format profile: High@L3.0
Format settings, CABAC: Yes
Format profile: High@L4.1
Format settings, CABAC: Yes
Format settings, ReFrames: 8 frames
Format settings, GOP: M=6, N=9
Muxing mode: Header stripping
Codec ID: V_MPEG4/ISO/AVC
Duration: 52mn 31s
Bit rate: 3 750 Kbps
Nominal bit rate: 4 000 Kbps
Width: 1 280 pixels
Height: 720 pixels
Display aspect ratio: 16:9
Frame rate: 29.970 fps
Color space: YUV
Chroma subsampling: 4:2:0
Bit depth: 8 bits
Scan type: Progressive
Bits/(Pixel*Frame): 0.136
Stream size: 1.38 GiB (93%)

Audio
Format: AC-3
Format/Info: Audio Coding 3
Mode extension: CM (complete main)
Muxing mode: Header stripping
Codec ID: A_AC3
Duration: 52mn 31s
Bit rate mode: Constant
Bit rate: 192 Kbps
Channel(s): 2 channels
Channel positions: Front: L R
Sampling rate: 48.0 KHz
Bit depth: 16 bits
Compression mode: Lossy
Delay relative to video: 28ms
Stream size: 72.1 MiB (5%)

Type: Documentary
Country: France
Language: Nepali, English
Director: Jerome Segur
Cast: Moti, parents, relatives and friends
Subtitles: English

Ссылка:
https://dropmefiles.com/S2iQ1
Проверь, пожалуйста, мой wishlist
Буду рад приглашению на 32Pages \ DesiCD \ LzTr \ NotWhatCD
@Nafanz

Хороший фильм. А есть к нему субтитры на русском?
Sounds From Outside My Window
@litrian
Я не видел, но в принципе там и без сабов можно общий смысл понять
Если найду - выложу
Проверь, пожалуйста, мой wishlist
Буду рад приглашению на 32Pages \ DesiCD \ LzTr \ NotWhatCD
@Nafanz
Cпасибо thumb.gif Странно что на такой экстрим идут а научиться пасечному делу им похоже лень. А вообще после такого фильма думаю отведать чай с мёдом smile.gif
Sounds From Outside My Window
Цитата: @litrian
Nafanz
Cпасибо thumb.gif Странно что на такой экстрим идут а научиться пасечному делу им похоже лень. А вообще после такого фильма думаю отведать чай с мёдом smile.gif
Экстрим, но зато у них траты только на инвентарь, да и то он из подручных средств сделан. Не нужно покупать ульи, пчел, арендовать\покупать землю и тд. Да и мед диких пчел я уверен дороже стоит

Если интересно можешь погуглить про бортевое пчеловодство
Проверь, пожалуйста, мой wishlist
Буду рад приглашению на 32Pages \ DesiCD \ LzTr \ NotWhatCD
(2011) ZED - Facing the Giant Bees.mkv (без перевода)
Ссылка:
https://mega.nz/#!t94QSIwQ!h6z257cxG5ruMV6VkuVPSDFaI228ZD5L5ulO4QbJSac
Проверь, пожалуйста, мой wishlist
Буду рад приглашению на 32Pages \ DesiCD \ LzTr \ NotWhatCD

Этот топик читают:

5 ответов с 20.11.18 в 7:58
Назад в Документальные фильмы и ТВ