картинка, оставленная пользователем
Scientist - Scientist rids the world of the evil curse of the vampires (1981) (2001 remastered)

archive size:79.9 mb
duration:00:37:33
sample rate:44.1 khz
bitrate:320 kbps-cbr
sourсe:flac (lossless)
codec:lame 3.98
ripper:dbPowerAmp

tracklisting:
01. The voodoo curse (3:49)
02. Dance of the vampires (3:26)
03. Blood on his lips (3:00)
04. Cry of the werewolf (4:25)
05. The mummy's shroud (4:26)
06. The corpse rises (3:27)
07. Night of the living dead (4:14)
08. Your teeth in my neck (4:38)
09. Plague of zombies (2:49)
10. Ghost of Frankenstein (3:23)

letitbit
ifolder
megaupload

p.s. если что, у меня 16 альбомов во флаке. обращайтесь, если нужен какой-то конкретный, потому что на 200кб\с аплоуда я всё заливать заколебаюсь.

Это сообщение отредактировал makkuroneko - 30.07.10 в 16:28
三月の真黒な猫
bigdickian
Цитата:
Mastasol enjoy
1982 The Seducer Dub Wise 192kbps
(IMG:http://funkyimg.com/u2/805/819/folder.jpg)

http://www.megaupload.com/?d=1OMQPY4U

А какой пароль к архиву?
Достигнув вершины, продолжай восхождение
если из подписи не подходит, то я перезалью, ибо хз))
pass - bigd
irie nuff respect
Цитата:
http://freshmp3blog.com/2010/11/10/scienti...-originals.html
Scientist – Scientist Launches Dubstep Into Outer Space – Dubstep Originals


Can someone please re-up this?

Also does anyone have the Scientist Launches Dubstep To Outer Space??

Thanks in advance


takeover
Цитата:
Dubstep Originals

Tectonic
2nd CD with Scientist dubs in december wink.gif
VA / Scientist Launches Dubstep Into Outer Space / TECCD010 / 2CD / 2010
картинка, оставленная пользователем
Цитата:
Artist: VA
Ripdate: Nov-2010
Album: Scientist Launches Dubstep Into Outer Space
Source: CDDA
Label: Tectonic
Type: Compilation
Catnr: TECCD010
Tracks: CD1: 12 CD2: 12
Year: 2010
Size: 145,5 MB
Genre: Bass
Quality: VBR

TRACKLISTING

CD1: Dubstep Originals

01 Pinch & Emika - 2012 05:13
02 Armour (Roly Vex'd) - The Long Way 04:31
03 Guido - Korg Back 04:11
04 Shackleton - Hackney Marshes 05:32
05 King Midas Sound - U 04:31
06 Asbo (Loefah & SGT Pokes) - Dog Money (Lovemix) 04:24
07 Distance - Ill Kontent 06:09
08 RSD - After All (Ft. Prince Jamo) 05:18
09 Jack Sparrow - Red Sand 05:29
10 Mala (Digital Mystikz) - City Cycle 05:35
11 Cyrus (Random Trio) - Footsteps 05:15
12 Kode9 & Spaceape - Abeng 04:33

CD2: Scientist Mixes

01 Scientist vs Pinch & Emika - 2012 Dub 05:12
02 Scientist vs Armour (Roly Vex'd) - The Long Way Dub 04:26
03 Scientist vs Guido - Korg Back Dub 04:11
04 Scientist vs Shackleton - Hackney Marshes Dub 04:43
05 Scientist vs King Midas Sound - U Dub (Part 2) 03:35
06 Scientist vs Asbo (Loefah & SGT Pokes) - Dog Money Dub 05:00
07 Scientist vs Distance - Ill Kontent Dub 05:02
08 Scientist vs RSD - After All Dub (Ft. Prince Jamo) 04:02
09 Scientist vs Jack Sparrow - Red Sand Dub 04:58
10 Scientist vs Mala (Digital Mystikz) - City Cycle Dub 04:10
11 Scientist vs Cyrus (Random Trio) - Footsteps Dub 04:59
12 Scientist vs Kode9 & Spaceape - Abeng Dub 03:49
-----
114:48

RELEASENOTES

Bristol dubstep champs have finally completed their project with dub engineer
Scientist, which sees him provide versions of 12 exclusive and unreleased
dubstep tracks.
CD1 contains the brand new exclusives by 12 respected dubstep producers from
todays bass scene. CD2 includes the fresh dub versions from Scientist's hand.
'Scientist Launches Dubstep Into Outer Space' comprises of a disc of his
versions alongside the originals, made for a very special and exclusive set.
"This project has taken over a year to put together from its conception late
last summer" says Tectonic's top dog Pinch.. "The final results are worth every
minute of effort that's gone into this - this is definitely my proudest moment
for Tectonic to date. The influence of dub swings round full circle!"

---> ul.to
njoy! teeth.gif
картинка, оставленная пользователем
pure dubness on CD2 thumb.gif
request 320 or flac
Here are megaupload links for 2 albums:


Scientist - High Priest Of Dub 128 kbps

Ссылка:
http://www.megaupload.com/?d=FJFQSSKI




Scientist - Scientific Dub 192 kbps

Ссылка:
http://www.megaupload.com/?d=S8DAN240
  
Scientist Rids The World Of The Evil Curse Of The Vampires 1981 (2001 remastered) FLAC
картинка, оставленная пользователем
log
EAC extraction logfile from 21. December 2007, 19:12 for CD
Scientist / Scientist Rids The World Of The Evil Curse Of The Vampires

Used drive : SONY DVD RW DW-U18A Adapter: 3 ID: 1
Read mode : Secure with NO C2, accurate stream, disable cache
Read offset correction : 12
Overread into Lead-In and Lead-Out : No

Used output format : C:\Program Files\FLAC\flac.exe (User Defined Encoder)
192 kBit/s
Additional command line options : -8 -A tukey(0.25) -A gauss(0.1875) -b 4096 -V -T "artist=%a" -T "title=%t" -T "album=%g" -T "date=%y" -T "tracknumber=%n" -T "genre=%m" %s --sector-align

Other options :
Fill up missing offset samples with silence : Yes
Delete leading and trailing silent blocks : No
Installed external ASPI interface


Track 1
Filename C:\UPLOADS\Scientist - Rids The World [FLAC] - Scientist - The Voodoo Curse.wav

Pre-gap length 0:00:02.00

Peak level 97.9 %
Track quality 99.9 %
Test CRC 1DBB1DF8
Copy CRC 1DBB1DF8
Copy OK

Track 2
Filename C:\UPLOADS\Scientist - Rids The World [FLAC] - Scientist - Dance Of The Vampires.wav

Peak level 97.9 %
Track quality 100.0 %
Test CRC 9C304ADC
Copy CRC 9C304ADC
Copy OK

Track 3
Filename C:\UPLOADS\Scientist - Rids The World [FLAC] - Scientist - Blood On His Lips.wav

Peak level 97.9 %
Track quality 100.0 %
Test CRC 0204715F
Copy CRC 0204715F
Copy OK

Track 4
Filename C:\UPLOADS\Scientist - Rids The World [FLAC] - Scientist - Cry Of The Werewolf.wav

Peak level 97.9 %
Track quality 100.0 %
Test CRC 48175779
Copy CRC 48175779
Copy OK

Track 5
Filename C:\UPLOADS\Scientist - Rids The World [FLAC] - Scientist - The Mummy's Shroud.wav

Peak level 97.9 %
Track quality 100.0 %
Test CRC 2705D279
Copy CRC 2705D279
Copy OK

Track 6
Filename C:\UPLOADS\Scientist - Rids The World [FLAC] - Scientist - The Corpse Rises.wav

Peak level 97.9 %
Track quality 100.0 %
Test CRC 05745CF6
Copy CRC 05745CF6
Copy OK

Track 7
Filename C:\UPLOADS\Scientist - Rids The World [FLAC] - Scientist - Night Of The Living Dead.wav

Peak level 97.9 %
Track quality 100.0 %
Test CRC F222BD5D
Copy CRC F222BD5D
Copy OK

Track 8
Filename C:\UPLOADS\Scientist - Rids The World [FLAC] - Scientist - Your Teeth In My Neck.wav

Peak level 97.9 %
Track quality 100.0 %
Test CRC 836187DD
Copy CRC 836187DD
Copy OK

Track 9
Filename C:\UPLOADS\Scientist - Rids The World [FLAC] - Scientist - Plague Of Zombies.wav

Peak level 97.9 %
Track quality 100.0 %
Test CRC 70FF228E
Copy CRC 70FF228E
Copy OK

Track 10
Filename C:\UPLOADS\Scientist - Rids The World [FLAC] - Scientist - Ghost Of Frankenstein.wav

Peak level 97.9 %
Track quality 100.0 %
Test CRC B5244536
Copy CRC B5244536
Copy OK

No errors occured


End of status report

Ссылка:
http://www.multiupload.com/Y5JXP81W6U

pass: nikitushka
Цитата:
Tectonic's most ambitious project to date, ‘Scientist Launches Dubstep Into Outer Space’ saw legendary dub engineer Scientist version 12 exclusive and unreleased dubstep rhythms from the scene’s top producers including Kode 9, Shackleton, Pinch and Mala. HYDRA Records then took this historic record, added 6 brand new exclusive mixes from Scientist, and added it to the original to create the exclusive Japan version of the Tectonic record ‘Scientist Launches Dubstep Into Japan’.

http://www.hydraworld.jp/english/label/13.html

Scientist Launches Dubstep Into Japan
anyone??
картинка, оставленная пользователем
Desi Roots & Scientist - Weed Fields / Burn Them
Label:Hawkeye
Catalog#:HE001
Format:Vinyl, 7"
Country:UK
Released:2009 (Originally issued in Jamaica on the Plantation label & in the UK on Hawkeye discomix 1980)
Genre:Reggae
Style:Roots Reggae, Dub

Tracklist
1 Desi Roots – Weed Fields
2 Scientist – Burn Them

Цитата:
wav http://www.multiupload.com/SZNV8S1YH1
enjoy this smoker's anthem thumb.gif smoke.gif

Это сообщение отредактировал dubby - 02.07.11 в 16:56
Various Artists - Best of Tectonic Part 2 (2009-2011) (TECCOMP 001 В) [2011]

картинка, оставленная пользователем

Label: Tectonic
Catalog#: TECCOMP 001 B
Released: 11 July, 2011
Genre: Electronic
Style: Dubstep / UK Funky / UK Garage
Quality: 320 cbr (web)
Playing Time: 01:44:04
Total Size: 254 mb

Tracklist:
1. Pinch & Moving Ninja - False Flag
2. 2562 - Love In Outer Space
3. Jack Sparrow - The Chase
4. Kryptics Minds - 768
5. Distance - Clockwork
6. 2562 - Lost
7. Pinch & Yolanda - Get Up (RSD Mix)
8. Joker - Output 1-2
9. Jack Sparrow - Terminal
10. Pursuit Grooves - Whisper
11. Jakes - Time Ends
12. Pinch - The Boxer
13. Jack Sparrow - Loveless
14. Kode 9 & Spaceape - Abeng
15. ASBO & Scientist - Dog Money Dub
16. King Midas Sound vs Scientist - U Dub Part 2
17. Illum Sphere - Dreamstealin'
18. Pinch & Loefah - Broken
19. Addison Groove - This Is It
20. Photek - Closer

UNIBYTES
WUPLOAD
FILESERVE
FILESONIC
UPLOADED.TO

Этот топик читают:

118 ответов с 16.04.07 в 13:32
Назад в Reggae/Dancehall/Dub