Sergei Rachmaninov / Сергей Рахманинов

Classical / Russia / (1873–1943)
4an4un а ссылка двумя постами выше чем не устраивает? mad.gif
спасибо. Не работала что-то ссылка. Сейчас все нормально.
залейте второй концерт на айфолдер пожалуйста! с рапиды невозможно качать (((
перезалейте 2ю симфонию... пожалуйся))

please, re-upload symphony no 2
ищу концерт для фортепиано с оркестром №3, ре-минор. ни одна ссылка отсюда не загружается =(
выложите, плз, у кого есть.
Рахманинов играет Рахманинова. Фортепиано (.ape)

Очень редкая запись, позволяющая послушать всё великолепие исполнения великого мастера в великолепном качестве. Запись с перфокарт технологии "Ampico", сделанных при жизни Рахманинова, восстановленная гораздо позднее, на современном рояле с техникой для чтения перфокарт.
Подробнее о технологии Ampico: http://cdguide.nm.ru/v10.html

Качать:
http://momupload.com/files/34756/Rcm_Rcm.rar.html
pwd: "classical.ucoz.ru"
Upload не мой, ссылка на момент создания поста жива. wink.gif






образ диска в ape, файла cue нет, к сожалению, выкладываю его отдельно:

Ссылка:
TITLE "Rachmaninov - Rachmaninov plays Rachmaninov - The Ampico Piano Recordings"
PERFORMER "Rachmaninov"
REM ** Generated by CueMaster v1.6 **
REM Time : 59:17:00
REM Length: 3557 seconds
REM Year : 1979
REM Genre : Classical
REM DiscID: f50de312
FILE "Rachmaninov.-.[Rachmaninov.plays.Rachmaninov.-.The.Ampico.Piano.Recordings].ape" WAVE
TRACK 01 AUDIO
TITLE "Cinq Morceaux de fantaisie, op.3 - 01. Elegie in E flat minor"
PREGAP 00:02:33
INDEX 01 00:00:00
TRACK 02 AUDIO
TITLE "Cinq Morceaux de fantaisie, op.3 - 02. Prelude in C sharp minor"
INDEX 01 04:07:55
TRACK 03 AUDIO
TITLE "Cinq Morceaux de fantaisie, op.3 - 03. Melodie in E major"
INDEX 01 07:55:10
TRACK 04 AUDIO
TITLE "Cinq Morceaux de fantaisie, op.3 - 04. Polichinelle in F sharpminor"
INDEX 01 11:46:35
TRACK 05 AUDIO
TITLE "Cinq Morceaux de fantaisie, op.3 - 05. Serenade in B flat minor"
INDEX 01 15:11:32
TRACK 06 AUDIO
TITLE "Barcarolle in G minor, op.10 No.3"
INDEX 01 18:39:55
TRACK 07 AUDIO
TITLE "Humoresque in G major, op.10 No.5"
INDEX 01 22:31:32
TRACK 08 AUDIO
TITLE "Prelude in G minor, op.23 No.5"
INDEX 01 26:19:05
TRACK 09 AUDIO
TITLE "Etude-tableau in B minor, op.39 No.4"
INDEX 01 30:22:10
TRACK 10 AUDIO
TITLE "Etude-tableau in A minor, op.39 No.6"
INDEX 01 33:57:17
TRACK 11 AUDIO
TITLE "Lilacs, op.21 No.5"
INDEX 01 36:28:40
TRACK 12 AUDIO
TITLE "Polka de V.R."
INDEX 01 38:52:27
TRACK 13 AUDIO
TITLE "Hopak(Mussorgsky, arr. Rachmaninov)"
INDEX 01 42:48:42
TRACK 14 AUDIO
TITLE "Wohin? (The Brooklet) - Schubert, arr. Rachmaninov"
INDEX 01 44:49:00
TRACK 15 AUDIO
TITLE "The Flight of the Bumble Bee(Rimsky-Korsakov, arr. Rachmaninov)"
INDEX 01 46:58:12
TRACK 16 AUDIO
TITLE "The Star-Spangled Banner(arr. Rachmaninov)"
INDEX 01 48:11:57
TRACK 17 AUDIO
TITLE "Liebeslied(Kreisler, arr. Rachmaninov)"
INDEX 01 49:34:72
TRACK 18 AUDIO
TITLE "Liebesfreud(Kreisler, arr. Rachmaninov)"
INDEX 01 53:23:70
keykid
У меня пишет "Wrong or expired link". Перезалей, если не сложно smile.gif
Svagrad
У меня работает, попробуй снова.
gwendante
На работе все таки удалось выдрать его.
Убедительная просьба на счёт тэг в классической музыке mp3!
В графе Title пишем полное название произведения, и только потом, через запятую (и пробел) название части.
В Графе Artist пишем, естественно, ФАМИЛИЮ КОМПОЗИТОРА.
Иначе - очень не удобно!
Исполнителя указываем в Orig. Artist (тэги ID3v2) и/или в комментарии.
Не забывайте также указывать номер записи.
Пример:
Artist - Title
MOZART - SYMPHONY No. 40 in G minor [KV 550] (1I4), Molto allegro
MOZART - SYMPHONY No. 40 in G minor [KV 550] (2I4), Andante
MOZART - SYMPHONY No. 40 in G minor [KV 550] (3I4), Menuetto
MOZART - SYMPHONY No. 40 in G minor [KV 550] (4I4), Allegro
ПРОКОФЬЕВ - SONATA VIII [B-flat major, Op. 84] (1I3), Andante dolce - Allegro moderato - Andante, come prima - Allegro
ПРОКОФЬЕВ - SONATA VIII [B-flat major, Op. 84] (2I3), Andante sognando
ПРОКОФЬЕВ - SONATA VIII [B-flat major, Op. 84] (3I3), Vivace - Allegro ben marcato - Andantino - Vivace, come prima
Тэги можно писать с помощью Winamp'а.
Composer: Sergei RACHMANINOV
Title: Piano concerto n°2
Genre: Classical; Piano; Orchestra
Format: APE
Size: 229 mb
Bitrate: 476 kbps
Year: 2000


TrackList:

1. Piano Concerto N°2 : Moderato
2. Adagio Sostenuto
3. Allegro Scherzando
4. Prelude
5. Etudes - Tableaux : N°1 : Allegro Non Troppo
6. N°2 : Allegro
7. N°9 : Grave
8. Variations On A Theme Of Corelli

Ссылка:
http://hire7.net/content_ftp/musik/3.08/RPCAG%5Bhire7.net%5D.rar
http://www.ripi-test.ru/node/504
jjenie каук твой файл читать?
airbusss22 любой нормальный плеер понимает мартышку, гугл и википедию тебе в помощь teeth.gif
Does anyone have his piano preludes?
it's hard to hold the hand of anyone who is reaching for the sky just to surrender
sarahclayton
I do. Have one CD like this -
Ссылка:
http://classical-mp3-100-130.lyricstemple.com/6f106b09.html


Это сообщение отредактировал Svagrad - 19.05.08 в 15:56

Этот топик читают:

69 ответов с 21.07.05 в 12:43
Назад в Classical music