juden_knight
nice werk!
thanx-a-lot
!low_m.f.®
fear leads to anger
anger leads to hate
hate leads to suffering
suffering leads to
the
dark side
www.myspace.com/lowpezmusic
juden_knight
а есть cue файл к Lovely Broken Thing [2005]?
спасибо кстати smile.gif
jelistoy
у меня нет.
но можешь зайти на их сайт - если тебя треклист интересует - то там всего 4 трека.
нищеброд из трущёб
PERFORMER "Underworld"
TITLE "BrokenLovelyThing"
FILE "audio.mp3" WAVE
TRACK 01 AUDIO
TITLE "JAL To Tokyo"
INDEX 01 00:00:00
TRACK 02 AUDIO
TITLE "Billy Goat"
INDEX 01 05:37:00
TRACK 03 AUDIO
TITLE "Peggy Sussed"
INDEX 01 11:39:00
TRACK 04 AUDIO
TITLE "Dub Shepherd"
INDEX 01 14:00:00
TRACK 05 AUDIO
TITLE "Lenny Penne"
INDEX 01 16:30:00
TRACK 06 AUDIO
TITLE "Monkey Wink"
INDEX 01 23:33:00
TRACK 07 AUDIO
TITLE "Witness"
INDEX 01 26:55:00
juden_knight
да не, я просто хотела на трэки порезать smile.gif и там 7 трэков
vtysh
спасибки за cue файл thumb.gif
правда пришлось его немного переделать, а то разрезать не хотело, но разобралась smile.gif
Lovely Broken Thing followed by Pizza For Eggs now
может у кого нибудь уже есть Pizza For Eggs - залейте плиз
could you put LOVELY BROKEN THING please on rapid? thanx
Underworld - Lovely Broken Thing
Ссылка:
http://rapidshare.de/files/8879157/lbt.zip.html
Pizza For Eggs

waiting ~1-2 hours.....=)

Добавлено:
Pizza For Eggs

enjoy!


Добавлено:
Pass:

funkysouls.com
нищеброд из трущёб
hihi

could someone please put the file on rapidshare...the download at megaload stopp´s at appr. 30 MB

thánk you
juden_knight
Good job! Thanx! thumb.gif
juden_knight
...once again
!low_m.f.®
fear leads to anger
anger leads to hate
hate leads to suffering
suffering leads to
the
dark side
www.myspace.com/lowpezmusic
thanx for rapid
HY

i have an info that is wrong pass for Pizza for Egs(funkysouls.com)?
"so deep...so liquid.."

Этот топик читают:

2064 ответов с 20.11.04 в 4:01
Назад в Electronic / Easy Listening