картинка, оставленная пользователем
картинка, оставленная пользователем
В настоящий момент состоав группы таков:
Шмидт Сергей (ударные)
Котов Дмитрий (гитара/вокал)
Андрей Береговский (гитара/вокал)
Сергей Маслов (бас)
Павел Горбатов (вокал)
История группы Until I Breathe началась довольно обыденно, для большинства современных групп. Основалась она на останках группы, играющей в стиле nu-metal. Котов Дмитрий (гитара) и Шмидт Сергей (ударные) решили найти участников новой группы. Музыкальное направление было определено записью демки, сделанной ещё в период существования предыдущей группы (позже этот трек будет включен в ЕР "Анатомия Мышления", называясь как "Небо на земле", фактически являясь первой песней группы). В начале августа 2006 года к группе присоединяется Морозов Алексей (гитара), затем, немного позже, Евгений Морев (бас). В роли вокалиста продолжительное время был Дмитрий Новицкий. Было записано несколько демо записей. В начале 2007 года сыграно несколько выступлений в родном городе.

Спустя некоторое время, Дмитрий Новицкий покинул группу. После длительных поисков место вокалиста занимает Никитенко Евгений. Наработанного материала хватает, что бы выпустить свой первый ЕР "Анатомия Мышления".
2008 год является весьма продуктивным для группы: параллельно с выступлениями создается новый материал для EP-альбома "Геноцид", выходит дебютный клип группы на песню "Битва с самим собой", который стал более популярным на YouTube, нежели на русских ресурсах.

В сентябре 2008 года Сергей Шмидт и Дмитрий Котов решают переехать в Москву. Для продолжения музыкальной деятельности группа находит недостающих участников, на место бас-гитариста встаёт Сергей Маслов, который является другом группы ещё с момента её основания. Место гитариста занимает Береговский Андрей, вокалистом становится Павел Горбатов, который достойно вписывается сложившийся в коллектив группы.

В мае 2010 года Until I Breathe приступают к записи нового альбома. В течение полугода происходит активная работа в "студии", которой являются собственные квартиры Сергея Шмидта и Андрея Береговского. Группа параллельно выпускает три видео-отчета о записи альбома, чтобы радовать своих слушателей не только музыкой, но и веселыми моментами из своей жизни. В качестве гостевого вокалиста в песне "Фрагменты" помог Алексей Шейн из группы Kambodge, которая в данный момент базируется в Санкт-Петербурге и тоже работает над новым материалом. Саунд-продюсером был выбран Сергей Данилов aka Buncker, в силу того, что ребята выпустили свой прошлый альбом вместе с ним. В данный момент группа планирует активные выступления и работает над клипом на песню "Все Больше И Больше", монтаж которого будет производиться своими силами, как и съемки видеоматериала.
ВКонтакте | Last.Fm | MySpace | Official Page | Facebook | Twitter
картинка, оставленная пользователем
картинка, оставленная пользователем
Мы Где-То Здесь (2010)
Треклист:
01. Мессия
02. Остановись
03. В Тишине Белых Стен
04. Все Больше И Больше
05. Время Подняться С Земли
06. Мы Где-То Здесь
07. Искусственный Облик
08. Фрагменты (feat. A.Shane)
09. Пока Я Дышу
10. Неминуемо И Безвозвратно
RGhost
Ifolder
FLAC
картинка, оставленная пользователем
Геноцид (2008)
[center]Tracklist:
01. Пре
02. Битва с Самим Собой
03. Идя По Головам
04. День Расплаты
05. Пост
06. Черный Саван
07. Кровь Никогда Не Смыть
08. Аррива
Ifolder(mp3)
RGhost(FLAC)
картинка, оставленная пользователем
Анатомия Мышления (2008)
Tracklist:
01. Небо На Земле
02. Крылья
03. Лица
04. Время
05. Пока Я Дышу
Ifolder(mp3)
DepositFiles
Rapidshare

картинка, оставленная пользователем

Official Video


Studio Reports


Official YouTube Page



Это сообщение отредактировал lrp - 28.09.10 в 13:02
Крепительное
Это сообщение отредактировал Penguin
Кто говорил, что флака нет?) Купил диск и сделал, кому надо.

Until I Breathe - Геноцид (2008)
картинка, оставленная пользователем
Format: FLAC (tracks) + CUE + LOG (100%) + Scans
Tracklist:
01. Пре
02. Битва с Самим Собой
03. Идя По Головам
04. День Расплаты
05. Пост
06. Черный Саван
07. Кровь Никогда Не Смыть
08. Аррива

LOG
Exact Audio Copy V0.99 prebeta 5 from 4. May 2009

EAC extraction logfile from 28. December 2009, 17:49

Until I Breathe / Геноцид

Used drive : Optiarc DVD RW AD-7240S Adapter: 3 ID: 1

Read mode : Secure
Utilize accurate stream : Yes
Defeat audio cache : Yes
Make use of C2 pointers : No

Read offset correction : 48
Overread into Lead-In and Lead-Out : No
Fill up missing offset samples with silence : Yes
Delete leading and trailing silent blocks : No
Null samples used in CRC calculations : Yes
Used interface : Installed external ASPI interface
Gap handling : Appended to previous track

Used output format : User Defined Encoder
Selected bitrate : 1024 kBit/s
Quality : High
Add ID3 tag : No
Command line compressor : C:\Program Files\Exact Audio Copy\Flac\flac.exe
Additional command line options : --best -T "artist=%a" -T "title=%t" -T "album=%g" -T "date=%y" -T "tracknumber=%n" -T "genre=%m" %s


TOC of the extracted CD

Track | Start | Length | Start sector | End sector
---------------------------------------------------------
1 | 0:00.00 | 0:48.00 | 0 | 3599
2 | 0:48.00 | 3:16.00 | 3600 | 18299
3 | 4:04.00 | 3:46.37 | 18300 | 35286
4 | 7:50.37 | 2:55.37 | 35287 | 48448
5 | 10:45.74 | 1:20.15 | 48449 | 54463
6 | 12:06.14 | 4:19.37 | 54464 | 73925
7 | 16:25.51 | 2:41.00 | 73926 | 86000
8 | 19:06.51 | 1:02.35 | 86001 | 90685


Track 1

Filename C:\Users\Alex & Julia\Desktop\Новая папка - Пре.wav

Pre-gap length 0:00:02.00

Peak level 100.0 %
Track quality 100.0 %
Test CRC BFF57D88
Copy CRC BFF57D88
Copy OK

Track 2

Filename C:\Users\Alex & Julia\Desktop\Новая папка - Битва С Самим Собой.wav

Peak level 99.9 %
Track quality 100.0 %
Test CRC FC6AEDFC
Copy CRC FC6AEDFC
Copy OK

Track 3

Filename C:\Users\Alex & Julia\Desktop\Новая папка - Идя По Головам.wav

Peak level 99.9 %
Track quality 100.0 %
Test CRC 0A6F2E24
Copy CRC 0A6F2E24
Copy OK

Track 4

Filename C:\Users\Alex & Julia\Desktop\Новая папка - День Расплаты.wav

Peak level 99.9 %
Track quality 100.0 %
Test CRC A58060C6
Copy CRC A58060C6
Copy OK

Track 5

Filename C:\Users\Alex & Julia\Desktop\Новая папка - Пост.wav

Peak level 79.5 %
Track quality 100.0 %
Test CRC 13901FA3
Copy CRC 13901FA3
Copy OK

Track 6

Filename C:\Users\Alex & Julia\Desktop\Новая папка - Чёрный Саван.wav

Peak level 99.9 %
Track quality 100.0 %
Test CRC 9F5F2E4E
Copy CRC 9F5F2E4E
Copy OK

Track 7

Filename C:\Users\Alex & Julia\Desktop\Новая папка - Кровь Никогда Не Смыть.wav

Peak level 99.9 %
Track quality 100.0 %
Test CRC 97E11A8B
Copy CRC 97E11A8B
Copy OK

Track 8

Filename C:\Users\Alex & Julia\Desktop\Новая папка - Аррива.wav

Peak level 100.0 %
Track quality 99.8 %
Test CRC A5F1A57D
Copy CRC A5F1A57D
Copy OK

No errors occurred

End of status report

RGhost
картинка, оставленная пользователемкартинка, оставленная пользователем
картинка, оставленная пользователемкартинка, оставленная пользователем
картинка, оставленная пользователемкартинка, оставленная пользователем
Alex_Corvis
спасибо thumb.gif
ждем нового материала теперь
Alex_Corvis
архив битый, 03. Идя По Головам - не роспаковуется sad.gif
залей отдельно
картинка, оставленная пользователем
Visca Barça!!!
Какой-то Kambodge дубль два smile.gif
Но всё же интересно очень thumb.gif
Не не не, все на 5! свежак biggrin.gif
Сандро
картинка, оставленная пользователем

8 января | клуб ХО | 17:00
MOSH’НАЯ ЁЛКА!

Вход: 100р!!
http://vkontakte.ru/event11802087
http://www.lastfm.ru/event/1350050
Завтра в XO.))
Ждём всех!


1го мая Until I Breathe начали записывать альбом "Мы Где-то Здесь". выход планируется на лето 2010 года.
Until I Breathe - Мы Где-То Здесь (2010)
картинка, оставленная пользователем
Треклист:
01. Мессия
02. Остановись
03. В Тишине Белых Стен
04. Все Больше И Больше
05. Время Подняться С Земли
06. Мы Где-То Здесь
07. Искусственный Облик
08. Фрагменты (feat. A.Shane)
09. Пока Я Дышу
10. Неминуемо И Безвозвратно

япапко
Всем качать!
За*бок thumb.gif
8й трек крут, да biggrin.gif
прфлдаофлыагркга
Очень даже интересно!
И неплохо, совсем. Всегда стараются качественно сделать эти парни.
Буду внимательно слушать и не раз.

Этот топик читают:

185 ответов с 31.03.08 в 1:27
Назад в Russian & ex-USSR scene